Торренты   
 
 

 

Реальная белка в 3Д / The Nut Job 3D (2014) [miniBDRip, 1080p] Anamorph SideBySide / Горизонтальная анаморфная стереопара

Рейтинг 3D:
60 голосов
7.2
Рейтинг фильма:
61 голосов
7.2
 
Вы должны быть авторизированы,
чтобы ставить оценки


Реальная белка / The Nut Job
«Береги свои орешки!»
Год выхода: 2013
Жанр: мультфильм, комедия, приключения, семейный
Страна: Канада, Корея Южная, США
Производство: Gulfstream Pictures, Red Rover International, ToonBox Entertainment
Продолжительность: 01:25:54
Перевод: Дубляж, Любительский многоголосый, Любительский одноголосый х2
Режиссер: Питер Лепениотис
Роли озвучивали: Уилл Арнетт, Брендан Фрейзер, Лиам Нисон, Кэтрин Хайгл, Стивен Лэнг, Майя Рудольф, Джефф Данэм, Гэбриел Иглесиас, Сара Гадон, Джеймс Ранкин
Описание: Пытаясь выжить в городе, неразлучные друзья — белка Злюк и крысёнок Бадди натыкаются на магазин, до краёв набитый их любимым лакомством — орехами. Чувствуя, что «мечты сбываются», приятели планируют величайшее ограбление в истории грызунов. Но тут совсем некстати нарисовались бедные родственники из парка — прямо 13 друзей арахиса! Однако им всем невдомёк, что магазин орехов — лишь прикрытие для банды грабителей, которые намерены вырыть туннель под банк и подменить мешки с деньгами на мешки с теми самыми орехами.
Премьера (мир): 17 января 2014
Премьера (РФ): 17 апреля 2014, «Двадцатый Век Фокс СНГ», «Каравелла DDC» 3D
Премьера (Укр.): 17 апреля 2014, «Каравелла DDC Украина» 3D
Формат 3D: Anamorph SideBySide / Горизонтальная анаморфная стереопара
Порядок ракурсов: левый ракурс первый
Качество: miniBDRip
Контейнер: MKV
Видео кодек: x264
Аудио кодек: AC3
Видео: MPEG-4 AVC, 1974 Кбит/сек, 1920х1080, 23,976 кадр/с
Аудио 1Русский, AC3, 2 ch, 192 Кбит/с, 48 KHz (Дубляж [Чистый Звук])
Аудио 2Русский, AC3, 6 ch, 448 Кбит/c, 48 KHz (Профессиональное (многоголосое) [Baibako])
Аудио 3Русский, AC3, 2 ch, 192 Кбит/c, 48 KHz (Любительское (одноголосое) [Vano])
Аудио 4Русский, AC3, 2 ch, 192 Кбит/c, 48 KHz (Любительское (одноголосое) [Pashaup])
Аудио 5: English, AC3, 6 ch, 256 Кбит/с, 48 KHz (Original)

Скриншоты




MediaInfo

Общее
Уникальный идентификатор : 215794627991436283849214958342633935035 (0xA25888994438FF55B01BCBAF8FB7D0BB)
Полное имя : D:\Download\The Nut Job 3D 2013 miniBDRip 1080p halfSbS (IgorekSh) .mkv
Формат : Matroska
Версия формата : Version 2
Размер файла : 1,95 Гбайт
Продолжительность : 1 ч. 25 м.
Общий поток : 3256 Кбит/сек
Название фильма : ДОЛОЙ РЕКЛАМУ!
Дата кодирования : UTC 2014-04-25 15:26:50
Программа кодирования : mkvmerge v4.0.0 ('The Stars were mine') сборка от Jun 6 2010 16:18:42
Библиотека кодирования : libebml v1.0.0 + libmatroska v1.0.0
Видео
Идентификатор : 1
Формат : AVC
Формат/Информация : Advanced Video Codec
Профиль формата : High@L4.1
Параметр CABAC формата : Да
Параметр ReFrames формата : 4 кадра
Идентификатор кодека : V_MPEG4/ISO/AVC
Продолжительность : 1 ч. 25 м.
Битрейт : 1974 Кбит/сек
Ширина : 1920 пикселей
Высота : 1080 пикселей
Соотношение сторон : 16:9
Режим частоты кадров : Постоянный
Частота кадров : 23,976 кадра/сек
Цветовое пространство : YUV
Субдискретизация насыщенности : 4:2:0
Битовая глубина : 8 бит
Тип развёртки : Прогрессивная
Бит/(Пиксели*Кадры) : 0.040
Размер потока : 1,15 Гбайт (59%)
Заголовок : IgorekSh
Библиотека кодирования : x264 core 135 r2 f0c1c53
Настройки программы : cabac=1 / ref=4 / deblock=1:-1:-1 / analyse=0x3:0x133 / me=umh / subme=9 / psy=1 / psy_rd=1.00:0.15 / mixed_ref=1 / me_range=24 / chroma_me=1 / trellis=2 / 8x8dct=1 / cqm=0 / deadzone=21,11 / fast_pskip=0 / chroma_qp_offset=-3 / threads=36 / lookahead_threads=3 / sliced_threads=0 / nr=0 / decimate=1 / interlaced=0 / bluray_compat=0 / constrained_intra=0 / bframes=3 / b_pyramid=2 / b_adapt=2 / b_bias=0 / direct=3 / weightb=1 / open_gop=0 / weightp=2 / keyint=250 / keyint_min=23 / scenecut=40 / intra_refresh=0 / rc_lookahead=60 / rc=2pass / mbtree=1 / bitrate=1974 / ratetol=1.0 / qcomp=0.60 / qpmin=0 / qpmax=69 / qpstep=4 / cplxblur=20.0 / qblur=0.5 / vbv_maxrate=31250 / vbv_bufsize=31250 / nal_hrd=none / ip_ratio=1.40 / aq=1:1.00
Язык : English
Default : Нет
Forced : Нет
Основные цвета : BT.709
Коэффициенты матрицы : BT.709
Аудио #1
Идентификатор : 2
Формат : AC-3
Формат/Информация : Audio Coding 3
Расширение режима : CM (complete main)
Параметр Endianness формата : Big
Идентификатор кодека : A_AC3
Продолжительность : 1 ч. 25 м.
Вид битрейта : Постоянный
Битрейт : 192 Кбит/сек
Каналы : 2 канала
Расположение каналов : Front: L R
Частота : 48,0 КГц
Битовая глубина : 16 бит
Метод сжатия : С потерями
Размер потока : 118 Мбайт (6%)
Язык : Russian
Default : Да
Forced : Да
Аудио #2
Идентификатор : 3
Формат : AC-3
Формат/Информация : Audio Coding 3
Расширение режима : CM (complete main)
Параметр Endianness формата : Big
Идентификатор кодека : A_AC3
Продолжительность : 1 ч. 25 м.
Вид битрейта : Постоянный
Битрейт : 448 Кбит/сек
Каналы : 6 каналов
Расположение каналов : Front: L C R, Side: L R, LFE
Частота : 48,0 КГц
Битовая глубина : 16 бит
Метод сжатия : С потерями
Размер потока : 275 Мбайт (14%)
Заголовок : ДОЛОЙ РЕКЛАМУ!
Язык : Russian
Default : Нет
Forced : Да
Аудио #3
Идентификатор : 4
Формат : AC-3
Формат/Информация : Audio Coding 3
Расширение режима : CM (complete main)
Параметр Endianness формата : Big
Идентификатор кодека : A_AC3
Продолжительность : 1 ч. 25 м.
Вид битрейта : Постоянный
Битрейт : 192 Кбит/сек
Каналы : 2 канала
Расположение каналов : Front: L R
Частота : 48,0 КГц
Битовая глубина : 16 бит
Метод сжатия : С потерями
Размер потока : 118 Мбайт (6%)
Язык : Russian
Default : Нет
Forced : Нет
Аудио #4
Идентификатор : 5
Формат : AC-3
Формат/Информация : Audio Coding 3
Расширение режима : CM (complete main)
Параметр Endianness формата : Big
Идентификатор кодека : A_AC3
Продолжительность : 1 ч. 25 м.
Вид битрейта : Постоянный
Битрейт : 192 Кбит/сек
Каналы : 2 канала
Расположение каналов : Front: L R
Частота : 48,0 КГц
Битовая глубина : 16 бит
Метод сжатия : С потерями
Размер потока : 118 Мбайт (6%)
Язык : Russian
Default : Нет
Forced : Нет
Аудио #5
Идентификатор : 6
Формат : AC-3
Формат/Информация : Audio Coding 3
Расширение режима : CM (complete main)
Параметр Endianness формата : Big
Идентификатор кодека : A_AC3
Продолжительность : 1 ч. 25 м.
Вид битрейта : Постоянный
Битрейт : 256 Кбит/сек
Каналы : 6 каналов
Расположение каналов : Front: L C R, Side: L R, LFE
Частота : 48,0 КГц
Битовая глубина : 16 бит
Метод сжатия : С потерями
Размер потока : 157 Мбайт (8%)
Язык : English
Default : Нет
Forced : Нет
Остальные раздачи этого фильма (4)
Благодарности релизеру (6)

Торрент:

Статус:

Размер:

Зарегистрирован   [ 2014-04-25 19:52 ]

проверено

1.95 GB

 
 Мнение о фильме (18)





Забавный прикольный мультик, 3D неглубокое, но есть пара-тройка вылетов. Рекомендую посмотреть, включая финальные титры. По-моему, к нему еще есть и тизер прикольный, раньше кто-то выкладывал.
 

Хороший мультик, хорошее 3Д, хороший звук. Всем смотреть. Благодарю за раздачу.
 

3D не самое лучшее, а вот сам мультик замечательный! Понравился и мне и дочке! Рекомендую скачать.
 

Классный мультик, всем понравился
 

прикольный и 3д в норме
 

Скучновато. Через 10 минут выключил.
 

на плазме 120 см разницы что мини что обычный рип нет никакой. так что спасибо за мини
 

Полное дерьмо. Простите за сравнение.
 

Мультфильм понравился. Спасибо.
 

Отличный мультик. С ребенком посмотрел с удовольствием. 3д хорошее и придает картинке более привлекательный вид.
 

Хороший мульт. Спасибо.
 
Виталий Цыганов Профиль 26-Май-2014 22:40

Смотрел в 2д понравился.Скачаю поставлю оценку 3д.Спасибо)))
 

Мульт отличный, глубина тоже есть, а вот с вылетами беда, их нет там где они явно просятся.
 

отличный мультик, 3D очень достойное, не знаю на чем смотрела ИринаХ - но на samsung 8007 отлично.
 

Классный мульт спасибо
 

с профессиональным переводом отличный мульт.но мало вылетов!
 
Андре баталов Профиль 14-Июн-2014 11:41

Прикольный и 3д в норме
 

Мульт - Бомба