Торренты   
 
 

 

Tаpзaн в 3Д / Тarzаn 3D (2013) [BDRip, 1080p] Anamorph SideBySide / Горизонтальная анаморфная стереопара

Рейтинг 3D:
5 голосов
7.0
Рейтинг фильма:
4 голосов
5.8
 
Вы должны быть авторизированы,
чтобы ставить оценки


Тарзан в 3Д / Tarzan 3D
«Стань свидетелем возрождения легенды»
Год выпуска: 2013
Страна: Германия (Constantin Film, Ambient Entertainment)
Жанр: Мультфильм, Семейный, Приключения
Продолжительность: 01:34:11
Перевод: Профессиональный дублированный [BD3D Rus]
Режиссер: Райнхард Клоосс / Reinhard Klooss
В ролях: Келлан Латс, Спенсер Лок, Тревор Ст. Джон, Лес Бабб, Брайан Блум, Брайан Хаски, Роберт Капрон, Джейми Рэй Ньюман, Марк Деклин, Джо Осмонд
Роли дублировали: Наталья Терешкова, Андрей Казанцев, Томас Шлеккер
Описание: Во время крушения американского воздушного лайнера в джунглях погибли все пассажиры, выжил лишь один младенец. Он стал приемышем в стае диких обезьян, которые выкормили, вырастили его, научили выживать в этом жестком мире естественного отбора… Пришло время, и теперь мощный и ловкий, он должен защитить свой мир от врагов. Но главное — он должен снова стать человеком.
Формат 3D: Anamorph SideBySide / Горизонтальная анаморфная стереопара
Порядок ракурсов: левый ракурс первый
Качество: BDRip
Контейнер: MKV
Видео кодек: x264
Аудио кодек: AC3
Видео: MPEG-4 AVC, 13,2 Мбит/с, 1920х1080, 23,976 кадр/с
Аудио: Русский / AC3 / 48 KHz / 5.1 ch / 640 Kbps (Дубляж - BD3D Rus)

Скриншоты


MediaInfo

Общее
Уникальный идентификатор : 187998115409265258578052974676478936815 (0x8D6F1EB8068AD3E48915D46B63A646EF)
Полное имя : D:\Download\Tarzan 3D 2013 BDRip 1080p halfSbS [3d-tracker.ru].mkv
Формат : Matroska
Версия формата : Version 2
Размер файла : 9,27 Гбайт
Продолжительность : 1 ч. 34 м.
Общий поток : 14,1 Мбит/сек
Название фильма : 3d-tracker.ru
Дата кодирования : UTC 2014-04-28 10:23:17
Программа кодирования : mkvmerge v4.0.0 ('The Stars were mine') сборка от Jun 6 2010 16:18:42
Библиотека кодирования : libebml v1.0.0 + libmatroska v1.0.0
Видео
Идентификатор : 1
Формат : AVC
Формат/Информация : Advanced Video Codec
Профиль формата : High@L4.1
Параметр CABAC формата : Да
Параметр ReFrames формата : 2 кадра
Идентификатор кодека : V_MPEG4/ISO/AVC
Продолжительность : 1 ч. 34 м.
Битрейт : 13,2 Мбит/сек
Ширина : 1920 пикселей
Высота : 1080 пикселей
Соотношение сторон : 16:9
Режим частоты кадров : Постоянный
Частота кадров : 23,976 кадра/сек
Цветовое пространство : YUV
Субдискретизация насыщенности : 4:2:0
Битовая глубина : 8 бит
Тип развёртки : Прогрессивная
Бит/(Пиксели*Кадры) : 0.265
Размер потока : 8,67 Гбайт (93%)
Заголовок : 3d-tracker.ru
Библиотека кодирования : x264 core
Язык : English
Default : Нет
Forced : Нет
Основные цвета : BT.709
Характеристики трансфера : BT.709
Коэффициенты матрицы : BT.709
Аудио
Идентификатор : 2
Формат : AC-3
Формат/Информация : Audio Coding 3
Расширение режима : CM (complete main)
Параметр Endianness формата : Big
Идентификатор кодека : A_AC3
Продолжительность : 1 ч. 34 м.
Вид битрейта : Постоянный
Битрейт : 640 Кбит/сек
Каналы : 6 каналов
Расположение каналов : Front: L C R, Side: L R, LFE
Частота : 48,0 КГц
Битовая глубина : 16 бит
Метод сжатия : С потерями
Размер потока : 431 Мбайт (5%)
Заголовок : 3d-tracker.ru
Язык : Russian
Default : Нет
Forced : Нет
Меню
00:00:00.000 : en:(01)00:00:00:000
00:07:15.476 : en:(02)00:07:15:476
00:12:43.345 : en:(03)00:12:43:345
00:18:35.155 : en:(04)00:18:35:155
00:24:38.226 : en:(05)00:24:38:226
00:30:01.674 : en:(06)00:30:01:674
00:36:28.853 : en:(07)00:36:28:853
00:42:11.862 : en:(08)00:42:11:862
00:48:29.448 : en:(09)00:48:29:448
00:53:28.580 : en:(10)00:53:28:580
01:00:08.313 : en:(11)01:00:08:313
01:05:35.139 : en:(12)01:05:35:139
01:11:38.502 : en:(13)01:11:38:502
01:18:32.290 : en:(14)01:18:32:290
01:25:17.987 : en:(15)01:25:17:987
01:28:02.986 : en:(16)01:28:02:986
01:34:10.603 : en:(17)01:34:10:603
Благодарности релизеру (2)

Торрент:

Статус:

Размер:

Зарегистрирован   [ 2014-04-28 14:52 ]

поглощено

9.27 GB