Торренты   
 
 

 

Тарзан / Tarzan (Райнхард Клоосс) [2013 г., Anamorph OverUnder]

Рейтинг 3D:
120 голосов
8.2
Рейтинг фильма:
118 голосов
7.8
 
Вы должны быть авторизированы,
чтобы ставить оценки



Тарзан / Tarzan
Год выпуска: 2013
Страна: Германия / Ambient Entertainment GmbH, Constantin Film Produktion GmbH
Жанр: мультфильм, семейный, приключения
Продолжительность: 01:34:11
Перевод: Профессиональный (полное дублирование)
Режиссер: Райнхард Клоосс
В ролях: Келлан Латс, Спенсер Лок, Тревор Ст. Джон, Лес Бабб, Брайан Блум, Брайан Хаски, Роберт Капрон, Джейми Рэй Ньюман, Марк Деклин, Джо Осмонд, Наталья Терешкова, Андрей Казанцев, Томас Шлеккер
Описание: Во время крушения американского воздушного лайнера в джунглях погибли все пассажиры, выжил лишь один младенец. Он стал приемышем в стае диких обезьян, которые выкормили, вырастили его, научили выживать в этом жестком мире естественного отбора... Пришло время, и теперь мощный и ловкий, он должен защитить свой мир от врагов. Но главное - он должен снова стать человеком.
Качество: BDrip
Контейнер: MKV
Формат 3D: Anamorph OverUnder / Вертикальная анаморфная стереопара
Порядок ракурсов: левый ракурс первый
Видео кодек: x264
Аудио кодек: AC-3
Видео: AVC, High@L4.1, 1920х1080, 23,976 кадра/сек, 9455 Кбит/сек
Аудио:
48 kHz, AC3 Dolby Digital, 5/1 ch, ~640.00 kbps avg |Russian|
Cубтитры: нет

Скриншоты

Media Info

Общее
Уникальный идентификатор : 224978506475032821686556396481138654528 (0xA94148C45EE2F3D6B15B629171A3FD40)
Полное имя : H:\Source\Tarzan.3D.2013.BDrip.Half.OU.x264.AC3.(itsamna).mkv
Формат : Matroska
Версия формата : Version 4 / Version 2
Размер файла : 6,78 Гбайт
Продолжительность : 1 ч. 34 м.
Общий поток : 10,3 Мбит/сек
Название фильма : Tarzan 3D
Дата кодирования : UTC 2014-04-28 14:06:52
Программа кодирования : mkvmerge v6.8.0 ('Theme for Great Cities') 32bit built on Mar 2 2014 21:27:07
Библиотека кодирования : libebml v1.3.0 + libmatroska v1.4.1
Видео
Идентификатор : 1
Формат : AVC
Формат/Информация : Advanced Video Codec
Профиль формата : High@L4.1
Параметр CABAC формата : Да
Параметр ReFrames формата : 4 кадра
Идентификатор кодека : V_MPEG4/ISO/AVC
Продолжительность : 1 ч. 34 м.
Битрейт : 9455 Кбит/сек
Ширина : 1920 пикселей
Высота : 1080 пикселей
Соотношение сторон : 16:9
Режим частоты кадров : Постоянный
Частота кадров : 23,976 кадра/сек
Цветовое пространство : YUV
Субдискретизация насыщенности : 4:2:0
Битовая глубина : 8 бит
Тип развёртки : Прогрессивная
Бит/(Пиксели*Кадры) : 0.190
Размер потока : 6,22 Гбайт (92%)
Библиотека кодирования : x264 core 130 r2273 b3065e6
Настройки программы : cabac=1 / ref=4 / deblock=1:-3:-3 / analyse=0x3:0x133 / me=umh / subme=10 / psy=1 / psy_rd=1.00:0.15 / mixed_ref=1 / me_range=32 / chroma_me=1 / trellis=2 / 8x8dct=1 / cqm=0 / deadzone=21,11 / fast_pskip=0 / chroma_qp_offset=-3 / threads=12 / lookahead_threads=2 / sliced_threads=0 / nr=0 / decimate=1 / interlaced=0 / bluray_compat=0 / constrained_intra=0 / bframes=8 / b_pyramid=2 / b_adapt=2 / b_bias=0 / direct=3 / weightb=1 / open_gop=0 / weightp=2 / keyint=250 / keyint_min=23 / scenecut=40 / intra_refresh=0 / rc_lookahead=60 / rc=crf / mbtree=1 / crf=17.0 / qcomp=0.60 / qpmin=0 / qpmax=69 / qpstep=4 / vbv_maxrate=50000 / vbv_bufsize=62500 / crf_max=0.0 / nal_hrd=none / ip_ratio=1.40 / aq=1:0.90
Default : Да
Forced : Нет
Аудио
Идентификатор : 2
Формат : AC-3
Формат/Информация : Audio Coding 3
Расширение режима : CM (complete main)
Параметр Endianness формата : Big
Идентификатор кодека : A_AC3
Продолжительность : 1 ч. 34 м.
Вид битрейта : Постоянный
Битрейт : 640 Кбит/сек
Каналы : 6 каналов
Расположение каналов : Front: L C R, Side: L R, LFE
Частота : 48,0 КГц
Битовая глубина : 16 бит
Метод сжатия : С потерями
Размер потока : 431 Мбайт (6%)
Язык : Russian
Default : Да
Forced : Нет
Меню
00:00:00.000 : :01
00:07:15.477 : :02
00:12:43.346 : :03
00:18:35.156 : :04
00:24:38.227 : :05
00:30:01.675 : :06
00:36:28.853 : :07
00:42:11.863 : :08
00:48:29.448 : :09
00:53:28.580 : :10
01:00:08.313 : :11
01:05:35.140 : :12
01:11:38.503 : :13
01:18:32.291 : :14
01:25:17.988 : :15
01:28:02.986 : :16
--Релиз группы:

Проверено на встроенном плейере ТВ LG 42LW4500
--
Остальные раздачи этого фильма (4)
Благодарности релизеру (38)

Торрент:

Статус:

Размер:

Зарегистрирован   [ 2014-04-28 19:40 ]

проверено

6.78 GB

 
 Мнение о фильме (35)

1, 2  След.






Красивый мультик, сделан под художественный фильм. Очень реалистичны джунгли, обезьяны и движения персонажей. Сюжет больше рассчитан на детскую и семейную аудиторию. 3D хорошее. Советую посмотреть.
 

Хороший мультфильм , без 3д смотрится не так эффектно , героев писали оцифровкой с реальных людей , как в фильме "Аватар"
 
евгения мурашко Профиль 29-Апр-2014 17:35

Спасибо.Мультфильм и 3D на отлично.Одним словом классно.
 

Отличный фильм!! Местами напоминает Аватара- а может мне показалось-но однозначно в коллекцию.Спасибо релизёру!
 

После просмотра в обычном режиме, 3D смотрится намного интереснее. Мультфильм очень даже не плохой. 3D хорошее.
 

Хороший мультик. 3д хорошее. Спасибо.
 
Виталий Цыганов Профиль 01-Май-2014 21:11

Все отлично! Смотрели с удовольствием!
 

Шикарный мульт. Спасибо релизёру. Смотрели всей семьёй. Все очень реалистично и красочно. Дочка (4 года), неверя, несколько раз переспрашивала настоящие ли это люди :)
P.S. Аватара действительно местами напоминает
 

Отличный, красивый мультфильм. 3D хорошее. С удовольствием смотрели все. Спасибо.
 

Отличный рип и фильм хороший. Спасибо!!!
 

Спасибо! Очень понравилось.
 

Отличный, красивый мультфильм. 3D хорошее. С удовольствием смотрели все. Спасибо!!!
 

Really good family cartoon with nice 3D effects (not something outstanding). Worth to see, recommended. Special thanks to the site maintaining persons!!!!
 

Большое спасибо понравилось
 

3D на высоте, можно сказать отличное. Мульт нарисован вообще суперски. Иной раз кажется, что смотришь фильм. Но сюжет слабоват. Все деньги на графику пустили. Хотя книжка Эдгара Берроуза про Тарзана очень интересная. Советую дать детям почитать. Автору огромное спасибо за работу.
Лучшее 3D творение за последнее время.
 

Спасибо! Мультфильм отличный! отличная, красивая графика в 3Д! и сюжет оч. понравился.
 

Окружение смотрится шикарно, но ЛЮДИ! не верьте предыдущим постам реалистичность людей не дотягивает до Final Fantasy 15-ти летней давности, даже до FF7 и капитана Харлока а уж с Беовульфом сравнить то тут люди не живее чем в игрушках лего, да и в современных играх люли реалистичнее! из-за примитивных моделей людей (сразу видно что не корея или пиндостан делали) - НА твёрдую ТРОЕЧКУ. Сюжет неинтересен, но он явно для детей. А вот ГОРИЛЛЫ! они реальнее выглядят чем люди. на расчёт их мохнатости ушли все деньги для рендеринга моделей, на людей не хватило
 

Очень красивый и красочный мультфильм! Смотрел с удовольствием! 3Д отличное - вылетов маловато, но в целом очень четкое и глубокое! Спасибо Dag13 за рип без полос!
 

Спасибо! Отличный мультик. Каждый видит то ,что хочет. Кто то просто смотрит мультфильм и отдыхает, другой не смотрит, а ищет изъяны.
 

Спасибо , все отлично ! Сыну очень понравился мультфильм и качество рипа. Спасибо Dag13 за рип без полос!
 

Страница 1 из 2

1, 2  След.