Торренты   
 
 


Космический пират Харлок / Space Pirate Captain Harlock (Синдзи Арамаки) [2013 г.,BDRip, Crop Анаглиф (Дюбуа)]

Рейтинг 3D:
3 голосов
6.6
Рейтинг фильма:
3 голосов
5.8
 
Вы должны быть авторизированы,
чтобы ставить оценки


Космический пират Харлок в 3D / Space Pirate Captain Harlock in 3D
Год выпуска: 2013
Страна: Япония, США, Франция
Жанр: мультфильм, фантастика, боевик, приключения
Продолжительность: 01:55:06
Перевод: Авторский (одноголосый) (Ю. Живов)
Многоголосый закадровый - FireDub (Galaktion & Sora & HeavyBlozar)
Субтитры: Russian
Режиссер: Синдзи Арамаки / Shinji Aramaki
В ролях: Шун Огури, Аои Ю, Аяно Фукуда, Арата Фурута, Киёси Кобаяси, Харума Миура, Морикава Тосиюки, Тикао Оцука, Маая Сакамото, Миюки Савасиро
Описание: Далекое будущее. Преступная корпорация Гайя стала злейшим врагом Земли, отобрав у людей все: свободу, дом, будущее… Казалось, что надежды на спасение нет… Но, появился Он — космический пират Харлок, капитан призрачного корабля Аркадия. Беглец, готовый сражаться за Землю. Кто Он, герой или преступник?..

Доп. информация:
Внимание: Справа и слева у видеоряда обрезано по 248р, что дает возможность просмотра на полный экран (без черных полос) на телевизорах с соотношением сторон 16:9 без изменения пропорций.
Мировая премьера:3 сентября 2013

Формат 3D: Анаглиф (Дюбуа)

Качество: BDRip 1080p
Формат: MKV
Видео кодек: H.264
Аудио кодек: AC3
Видео: x264, 1920 x 1080 (16:9), 4886 kbps, 23,976 fps, (0.098 bpp)
Аудио #1: Русский / AC3 / 48 KHz / 5.1 ch / 640 Kbps (VO - Ю. Живов)
Аудио #2: Русский / AC3 / 48 KHz / 5.1 ch / 640 Kbps (MVO - FireDub [Galaktion & Sora & HeavyBlozar]) (перевод - Lakfakalle) (микс в 5.1 - Ash61)

Скриншоты

ОтчетМедиаИнфо

Общее
Уникальный идентификатор : 204674095634451106427575717847511812317 (0x99FACC05B8423BD4ADB9666654D748DD)
Полное имя : D:Space.Pirate.Captain.Harlock_3D.mkv
Формат : Matroska
Версия формата : Version 4 / Version 2
Размер файла : 5,06 Гбайт
Продолжительность : 1 ч. 55 м.
Общий поток : 6291 Кбит/сек
Название фильма : Космический пират Харлок / Space Pirate Captain Harlock (2013) BDRip 1080p 3D(Crop)(Anaglyph_Dubois)
Дата кодирования : UTC 2014-04-29 08:40:03
Программа кодирования : mkvmerge v6.2.0 ('Promised Land') built on Apr 28 2013 12:22:01
Библиотека кодирования : libebml v1.3.0 + libmatroska v1.4.0
Видео
Идентификатор : 1
Формат : AVC
Формат/Информация : Advanced Video Codec
Профиль формата : High@L4.1
MultiView_Count : 2
MultiView_Layout : Anaglyph (cyan/red)
Параметр CABAC формата : Да
Параметр ReFrames формата : 4 кадра
Идентификатор кодека : V_MPEG4/ISO/AVC
Продолжительность : 1 ч. 55 м.
Битрейт : 4886 Кбит/сек
Ширина : 1920 пикселей
Высота : 1080 пикселей
Соотношение сторон : 16:9
Режим частоты кадров : Постоянный
Частота кадров : 23,976 кадра/сек
Цветовое пространство : YUV
Субдискретизация насыщенности : 4:2:0
Битовая глубина : 8 бит
Тип развёртки : Прогрессивная
Бит/(Пиксели*Кадры) : 0.098
Размер потока : 3,93 Гбайт (78%)
Заголовок : Space Pirate Captain Harlock (2013) BDRip 1080p 3D(Crop)(Anaglyph_Dubois).mkv
Библиотека кодирования : x264 core 130 r2273 b3065e6
Настройки программы : cabac=1 / ref=4 / deblock=1:1:1 / analyse=0x3:0x113 / me=umh / subme=9 / psy=1 / psy_rd=0.40:0.00 / mixed_ref=1 / me_range=16 / chroma_me=1 / trellis=1 / 8x8dct=1 / cqm=0 / deadzone=21,11 / fast_pskip=1 / chroma_qp_offset=-2 / threads=3 / lookahead_threads=1 / sliced_threads=0 / nr=0 / decimate=1 / interlaced=0 / bluray_compat=0 / constrained_intra=0 / bframes=4 / b_pyramid=2 / b_adapt=2 / b_bias=0 / direct=3 / weightb=1 / open_gop=1 / weightp=2 / keyint=250 / keyint_min=23 / scenecut=40 / intra_refresh=0 / rc_lookahead=50 / rc=crf / mbtree=1 / crf=18.0 / qcomp=0.60 / qpmin=0 / qpmax=69 / qpstep=4 / ip_ratio=1.40 / aq=1:0.60
Язык : Javanese
Default : Да
Forced : Нет
Аудио #1
Идентификатор : 2
Формат : AC-3
Формат/Информация : Audio Coding 3
Расширение режима : CM (complete main)
Параметр Endianness формата : Big
Идентификатор кодека : A_AC3
Продолжительность : 1 ч. 55 м.
Вид битрейта : Постоянный
Битрейт : 640 Кбит/сек
Каналы : 6 каналов
Расположение каналов : Front: L C R, Side: L R, LFE
Частота : 48,0 КГц
Битовая глубина : 16 бит
Метод сжатия : С потерями
Размер потока : 527 Мбайт (10%)
Заголовок : AVO [ Ю.Живов]
Язык : Russian
Default : Да
Forced : Нет
Аудио #2
Идентификатор : 3
Формат : AC-3
Формат/Информация : Audio Coding 3
Расширение режима : CM (complete main)
Параметр Endianness формата : Big
Идентификатор кодека : A_AC3
Продолжительность : 1 ч. 55 м.
Вид битрейта : Постоянный
Битрейт : 640 Кбит/сек
Каналы : 6 каналов
Расположение каналов : Front: L C R, Side: L R, LFE
Частота : 48,0 КГц
Битовая глубина : 16 бит
Метод сжатия : С потерями
Размер потока : 527 Мбайт (10%)
Заголовок : Многоголосый закадровый - FireDub (Galaktion & Sora & HeavyBlozar)
Язык : Russian
Default : Нет
Forced : Нет
Текст
Идентификатор : 4
Формат : UTF-8
Идентификатор кодека : S_TEXT/UTF8
Идентификатор кодека/Информация : UTF-8 Plain Text
Язык : Russian
Default : Да
Forced : Нет
Благодарности релизеру (0)

Торрент:

Статус:

Размер:

Зарегистрирован   [ 2014-04-29 15:28 ]

* не проверено

5.06 GB