Торренты   
 
 

 

Ясновидение в 3Д / Chit sam phat 3D / The Second Sight 3D (2013) [BDRip, 1080p] Anamorph OverUnder / Вертикальная анаморфная стереопара

Рейтинг 3D:
4 голосов
7.2
Рейтинг фильма:
4 голосов
5.2
 
Вы должны быть авторизированы,
чтобы ставить оценки


Ясновидение в 3Д
Chit sam phat 3D
The Second Sight 3D
Год выпуска: 2013
Страна: Таиланд
Жанр: Ужасы
Продолжительность: 01:29:34
Перевод: Двуголосый закадровый [DeadSno & den904]
Автор перевода: DeadSno
Релиз группа: "Колобок"
Режиссер: Порнчай Хонграттанапорн
В ролях: Нават Кулраттанарак, Ейяинг Рхатха Пхонгам, Вирапонд Жираветсунторакул, Анон Саисангчарн, Клаокай Синтеппадон, Пракасит Бовсуван
Описание: Джет с рождения обладал уникальными способностями к ясновидению, и хотя порою это изрядно облегчало ему жизнь, он всегда был настоящим изгоем, поскольку люди считали его мутантом. Когда однажды парень влюбляется в очаровательную Джум, это совершенно меняет его жизнь. Теперь, используя свои паранормальные способности, Джет пытается помочь девушке, оказавшейся в сложной ситуации, однако вскоре это приводит к печальным последствиям…

Формат 3D: Anamorph OverUnder / Вертикальная анаморфная стереопара
Порядок ракурсов: левый ракурс первый
Качество: BDRip
Контейнер: MKV
Видео кодек: x264
Аудио кодек: AC3
Видео: MPEG-4 AVC, 12,8 Мбит/с, 1920х1080, 23,976 кадр/с
Аудио 1: Русский / AC3 / 48 KHz / 5.1 ch / 448 Kbps
Аудио 2: Тайский / AC3 / 48 KHz / 5.1 ch / 640 Kbps

Скриншоты


MediaInfo

Общее
Уникальный идентификатор : 227593812376641381686318967568046016209 (0xAB38F94DAA8D11C98B9E7108EF58C6D1)
Полное имя : D:\Download\Chit sam phat 3D 2013 BDRip 1080p halfOU [3d-tracker.ru].mkv
Формат : Matroska
Версия формата : Version 2
Размер файла : 8,84 Гбайт
Продолжительность : 1 ч. 29 м.
Общий поток : 14,1 Мбит/сек
Дата кодирования : UTC 2014-04-29 11:29:52
Программа кодирования : mkvmerge v4.0.0 ('The Stars were mine') сборка от Jun 6 2010 16:18:42
Библиотека кодирования : libebml v1.0.0 + libmatroska v1.0.0
Видео
Идентификатор : 1
Формат : AVC
Формат/Информация : Advanced Video Codec
Профиль формата : High@L4.1
Параметр CABAC формата : Да
Параметр ReFrames формата : 4 кадра
Идентификатор кодека : V_MPEG4/ISO/AVC
Продолжительность : 1 ч. 29 м.
Битрейт : 12,8 Мбит/сек
Ширина : 1920 пикселей
Высота : 1080 пикселей
Соотношение сторон : 16:9
Режим частоты кадров : Постоянный
Частота кадров : 23,976 кадра/сек
Цветовое пространство : YUV
Субдискретизация насыщенности : 4:2:0
Битовая глубина : 8 бит
Тип развёртки : Прогрессивная
Бит/(Пиксели*Кадры) : 0.257
Размер потока : 7,98 Гбайт (90%)
Библиотека кодирования : x264 core 128 r2216M 198a7ea
Настройки программы : cabac=1 / ref=4 / deblock=1:-3:-3 / analyse=0x3:0x133 / me=umh / subme=10 / psy=1 / psy_rd=1.00:0.15 / mixed_ref=1 / me_range=32 / chroma_me=1 / trellis=2 / 8x8dct=1 / cqm=0 / deadzone=21,11 / fast_pskip=1 / chroma_qp_offset=-3 / threads=8 / lookahead_threads=1 / sliced_threads=0 / nr=0 / decimate=1 / interlaced=0 / bluray_compat=0 / constrained_intra=0 / bframes=6 / b_pyramid=2 / b_adapt=2 / b_bias=0 / direct=3 / weightb=1 / open_gop=0 / weightp=2 / keyint=230 / keyint_min=23 / scenecut=40 / intra_refresh=0 / rc_lookahead=60 / rc=crf / mbtree=1 / crf=17.0 / qcomp=0.60 / qpmin=0 / qpmax=69 / qpstep=4 / vbv_maxrate=40000 / vbv_bufsize=30000 / crf_max=30.0 / nal_hrd=none / ip_ratio=1.40 / aq=1:1.00
Язык : tai
Default : Нет
Forced : Нет
Аудио #1
Идентификатор : 2
Формат : AC-3
Формат/Информация : Audio Coding 3
Расширение режима : CM (complete main)
Параметр Endianness формата : Big
Идентификатор кодека : A_AC3
Продолжительность : 1 ч. 29 м.
Вид битрейта : Постоянный
Битрейт : 448 Кбит/сек
Каналы : 6 каналов
Расположение каналов : Front: L C R, Side: L R, LFE
Частота : 48,0 КГц
Битовая глубина : 16 бит
Метод сжатия : С потерями
Размер потока : 287 Мбайт (3%)
Язык : Russian
Default : Нет
Forced : Нет
Аудио #2
Идентификатор : 3
Формат : AC-3
Формат/Информация : Audio Coding 3
Расширение режима : CM (complete main)
Параметр Endianness формата : Big
Идентификатор кодека : A_AC3
Продолжительность : 1 ч. 29 м.
Вид битрейта : Постоянный
Битрейт : 640 Кбит/сек
Каналы : 6 каналов
Расположение каналов : Front: L C R, Side: L R, LFE
Частота : 48,0 КГц
Битовая глубина : 16 бит
Метод сжатия : С потерями
Размер потока : 410 Мбайт (5%)
Язык : tai
Default : Нет
Forced : Нет
Меню
00:00:00.000 : en:00:00:00.000
00:08:38.393 : en:00:08:38.393
00:14:28.451 : en:00:14:28.451
00:20:59.633 : en:00:20:59.633
00:29:30.644 : en:00:29:30.644
00:38:30.600 : en:00:38:30.600
00:45:02.199 : en:00:45:02.199
00:52:12.755 : en:00:52:12.755
00:59:06.835 : en:00:59:06.835
01:08:41.326 : en:01:08:41.326
01:16:45.017 : en:01:16:45.017
01:24:55.173 : en:01:24:55.173
Благодарности релизеру (8)

Торрент:

Статус:

Размер:

Зарегистрирован   [ 2014-04-29 16:00 ]

поглощено

8.84 GB

 
Комментарии:





Фильм даже не досмотрел.
3D норм.
 

определенно продукт "отличного от Голливуда" свойства.
Не думаю что сильно ошибусь, назвав фильм первым виденным мною тайским фильмом. вообще после откровеного брака встречающегося на первых 4-х минутахв т.ч. и по синхрону хотелось нажать "стоп", но дальше все идет более или менее ровно. в иных сценах даже интересно представлено пространство, плавное движение камеры, кадр не зарезан по высоте и в нем есть так необходимое пространство, головы не режутся рамкой - все это положительно для восприятия 3d. Иногда очевиден избыточный объем, т.е. съемка крупных планов со слишком большой базой (снято 3ality ригами- видимо ближе не было возможности свести). Компьютерные эффекты, конечно портят всё впечатление, - они откровенно порой не вписываются в картинку, заходят на реальные объекты (а на 1ч. 23м. 40 сек. вообще крестики фактуры в воздухе висят, которых не должно быть и в помине) забавно так,
но можно посмотреть, чтоб отдохнуть от голливудской картинки )))
сюжет оставлю без коммента..
 

Топик был перенесен из форума 3D Фильмы в форум Архив

Zagruzin