Торренты   
 
 

 

Космический мусор 3D / Space Junk 3D [2012, BDRip, half1080p, Anamorph OverUnder] DVO

Рейтинг 3D:
7 голосов
8.3
Рейтинг фильма:
7 голосов
7.3
 
Вы должны быть авторизированы,
чтобы ставить оценки


Космический мусор 3D
Space Junk 3D
- Год выпуска: 2012
Страна: США (Melrae Pictures, Red Barn Productions)
Жанр: Документальный, Короткометражка
Продолжительность: 0:37:26
Перевод: Профессиональный двухголосый закадровый (студия "Омикрон")
Режиссер: Мелисса Р. Баттс / Melissa R. Butts
В ролях: Том Уилкинсон (рассказчик на английском), Donald J. Kessler (главный специалист в области исследований орбитального мусора), Келби Кросс (космический аналитик №1), Эдуардо Гонсалес (проводник по метеорному кратеру), Ховард Хенли (учёный), Кимберли Херрманн (астроном обсерватории Лоуэлл), Никола Ламбо (космический аналитик №4), John Sullivan (пилот вертолёта), Michelle Yuen (космический аналитик №3), Эм Кларк (ребёнок у телескопа №2), Зак Кларк (ребёнок у телескопа №1)-Описание: Спустя 50 лет после того, как человечество покорило космос, образовалось тревожащее наследие - разрастающееся орбитальное кольцо обломков, угрожающее безопасности орбит Земли. Возникла необходимость предпринять действия, направленные на очистку орбиты нашей планеты...-Премьера (мир): 13 января 2012
. .
-Качество: BDRip (by Ash61)
Контейнер: MKV
Формат 3D: Half OverUnder / Вертикальная анаморфная стереопара
Порядок ракурсов: левый ракурс первый-Видео: AVC / 23,976 fps / 1920х1080p / ~9.1 Mbps
Аудио:
#1 - Русский / AC3 / 48 KHz / 5.1 ch / 640 Kbps (DVO - Омикрон)
#2 - Английский / AC3 / 48 KHz / 5.1 ch / 640 Kbps (Original - BD 3D)
Субтитры: Внешние (SRT UTF-8) English Full (i-фицированные)За русскую озвучку спасибо , serin и меценатам!

MediaInfo

General
Unique ID : 175690946256883630786618816221928470804 (0x842CD86E74161101A3966FABE313B914)
Complete name : E:SpaceJunk(2012)3D-halfOU(Ash61)DVO(Omicron)SpaceJunk(2012)3D-halfOU(Ash61)DVO(Omicron).mkv
Format : Matroska
Format version : Version 2
File size : 2.77 GiB
Duration : 37mn 25s
Overall bit rate : 10.6 Mbps
Movie name : Космический мусор 3D / Space Junk 3D (2012) 3D
Encoded date : UTC 2014-04-25 14:15:57
Writing application : mkvmerge v5.8.0 ('No Sleep / Pillow') built on Sep 2 2012 15:37:04
Writing library : libebml v1.2.3 + libmatroska v1.3.0
Video
ID : 1
Format : AVC
Format/Info : Advanced Video Codec
Format profile : High@L4.1
Format settings, CABAC : Yes
Format settings, ReFrames : 4 frames
Codec ID : V_MPEG4/ISO/AVC
Duration : 37mn 25s
Bit rate : 9 090 Kbps
Width : 1 920 pixels
Height : 1 080 pixels
Display aspect ratio : 16:9
Frame rate mode : Constant
Frame rate : 23.976 fps
Color space : YUV
Chroma subsampling : 4:2:0
Bit depth : 8 bits
Scan type : Progressive
Bits/(Pixel*Frame) : 0.183
Stream size : 2.38 GiB (86%)
Title : BDRip by Ash61
Writing library : x264 core 129 r2245 bc13772
Encoding settings : cabac=1 / ref=4 / deblock=1:-3:-3 / analyse=0x3:0x113 / me=umh / subme=10 / psy=1 / psy_rd=1.00:0.15 / mixed_ref=1 / me_range=32 / chroma_me=1 / trellis=2 / 8x8dct=1 / cqm=0 / deadzone=21,11 / fast_pskip=1 / chroma_qp_offset=-3 / threads=12 / lookahead_threads=2 / sliced_threads=0 / nr=0 / decimate=1 / interlaced=0 / bluray_compat=0 / constrained_intra=0 / bframes=8 / b_pyramid=2 / b_adapt=2 / b_bias=0 / direct=3 / weightb=1 / open_gop=0 / weightp=2 / keyint=250 / keyint_min=23 / scenecut=40 / intra_refresh=0 / rc_lookahead=60 / rc=crf / mbtree=1 / crf=17.0 / qcomp=0.70 / qpmin=0 / qpmax=69 / qpstep=4 / vbv_maxrate=40000 / vbv_bufsize=30000 / crf_max=0.0 / nal_hrd=none / frame-packing=4 / ip_ratio=1.40 / aq=1:0.70
Language : English
Default : Yes
Forced : No
Audio #1
ID : 2
Format : AC-3
Format/Info : Audio Coding 3
Mode extension : CM (complete main)
Format settings, Endianness : Big
Codec ID : A_AC3
Duration : 37mn 25s
Bit rate mode : Constant
Bit rate : 640 Kbps
Channel(s) : 6 channels
Channel positions : Front: L C R, Side: L R, LFE
Sampling rate : 48.0 KHz
Bit depth : 16 bits
Compression mode : Lossy
Stream size : 171 MiB (6%)
Title : Двухголосый закадровый - студия Омикрон
Language : Russian
Default : Yes
Forced : No
Audio #2
ID : 3
Format : AC-3
Format/Info : Audio Coding 3
Mode extension : CM (complete main)
Format settings, Endianness : Big
Codec ID : A_AC3
Duration : 37mn 25s
Bit rate mode : Constant
Bit rate : 640 Kbps
Channel(s) : 6 channels
Channel positions : Front: L C R, Side: L R, LFE
Sampling rate : 48.0 KHz
Bit depth : 16 bits
Compression mode : Lossy
Stream size : 171 MiB (6%)
Title : Original - BD 3D
Language : English
Default : No
Forced : No
Menu
00:00:00.000 : :1
00:02:23.894 : :2
00:05:52.894 : :3
00:07:34.913 : :4
00:08:48.486 : :5
00:10:49.649 : :6
00:13:31.894 : :7
00:15:35.643 : :8
00:17:08.861 : :9
00:18:24.812 : :10
00:19:58.197 : :11
00:22:06.158 : :12
00:25:26.191 : :13
00:28:30.292 : :14
00:31:26.134 : :15

Для оценки 3Д - Анимированные скрины












Техн. детали съёмки

  • Формат изображения: 1.33 : 1
  • Камера: IMAX Solido 3D Camera
    Sony F23
  • Формат съёмок: 65 mm
    Digital
  • Благодарности релизеру (26)

    Торрент:

    Статус:

    Размер:

    Зарегистрирован   [ 2014-05-02 17:09 ]

    проверено

    2.77 GB