Торренты   
 
 

 

Помпеи / Pompeii (Пол У. С. Андерсон) [2014 г., Anamorph OverUnder]

Рейтинг 3D:
134 голосов
7.3
Рейтинг фильма:
135 голосов
6.2
 
Вы должны быть авторизированы,
чтобы ставить оценки



Помпеи / Pompeii
Год выпуска: 2014
Страна: Канада, Германия
Жанр: боевик, драма, мелодрама, приключения
Продолжительность: 01:44:59
Перевод: Профессиональный (полное дублирование)
Режиссер: Пол У. С. Андерсон
В ролях: Кит Харингтон, Эмили Браунинг, Кифер Сазерленд, Адевале Акинойе-Агбаже, Джаред Харрис, Кэрри-Энн Мосс, Джессика Лукас, Саша Ройз, Джо Пинг, Карри Грэм
Описание: История любви раба Майло и благородной Кассии, обрученной с римским сенатором, на фоне извержения Везувия, которое навсегда стерло с лица земли древнеримский город Помпеи…
Качество: BDrip
Контейнер: MKV
Формат 3D: Anamorph OverUnder / Вертикальная анаморфная стереопара
Порядок ракурсов: левый ракурс первый
Видео кодек: x264
Аудио кодек: AC-3
Видео: AVC, High@L4.1, 1920х1080, 23,976 кадра/сек, 11,9 Мбит/сек
Аудио:
48 kHz, AC3 Dolby Digital, 5/1 ch, ~640.00 kbps avg |Russian|
48 kHz, AC3 Dolby Digital, 5/1 ch, ~640.00 kbps avg |English|
Cубтитры: Русские полные, английские полные и английские полные SDH

Скриншоты

Media Info

Общее
Уникальный идентификатор : 235965925626327966613789369455869472865 (0xB185625B0DEC234FA9D7CC6F96D8B061)
Полное имя : H:\Source\Pompeii.3D.2014.BDrip.Half.OU.x264.AC3.(itsamna).mkv
Формат : Matroska
Версия формата : Version 4 / Version 2
Размер файла : 9,84 Гбайт
Продолжительность : 1 ч. 44 м.
Общий поток : 13,4 Мбит/сек
Название фильма : Pompeii 3D
Дата кодирования : UTC 2014-05-17 13:17:07
Программа кодирования : mkvmerge v6.8.0 ('Theme for Great Cities') 32bit built on Mar 2 2014 21:27:07
Библиотека кодирования : libebml v1.3.0 + libmatroska v1.4.1
Attachment : Yes
Видео
Идентификатор : 1
Формат : AVC
Формат/Информация : Advanced Video Codec
Профиль формата : High@L4.1
Параметр CABAC формата : Да
Параметр ReFrames формата : 4 кадра
Идентификатор кодека : V_MPEG4/ISO/AVC
Продолжительность : 1 ч. 44 м.
Битрейт : 11,9 Мбит/сек
Ширина : 1920 пикселей
Высота : 1080 пикселей
Соотношение сторон : 16:9
Режим частоты кадров : Постоянный
Частота кадров : 23,976 кадра/сек
Цветовое пространство : YUV
Субдискретизация насыщенности : 4:2:0
Битовая глубина : 8 бит
Тип развёртки : Прогрессивная
Бит/(Пиксели*Кадры) : 0.239
Размер потока : 8,71 Гбайт (88%)
Библиотека кодирования : x264 core 130 r2273 b3065e6
Настройки программы : cabac=1 / ref=4 / deblock=1:-3:-3 / analyse=0x3:0x133 / me=umh / subme=10 / psy=1 / psy_rd=1.00:0.15 / mixed_ref=1 / me_range=32 / chroma_me=1 / trellis=2 / 8x8dct=1 / cqm=0 / deadzone=21,11 / fast_pskip=0 / chroma_qp_offset=-3 / threads=12 / lookahead_threads=2 / sliced_threads=0 / nr=0 / decimate=1 / interlaced=0 / bluray_compat=0 / constrained_intra=0 / bframes=8 / b_pyramid=2 / b_adapt=2 / b_bias=0 / direct=3 / weightb=1 / open_gop=0 / weightp=2 / keyint=250 / keyint_min=23 / scenecut=40 / intra_refresh=0 / rc_lookahead=60 / rc=crf / mbtree=1 / crf=16.0 / qcomp=0.60 / qpmin=0 / qpmax=69 / qpstep=4 / vbv_maxrate=50000 / vbv_bufsize=62500 / crf_max=0.0 / nal_hrd=none / ip_ratio=1.40 / aq=1:0.90
Default : Да
Forced : Нет
Аудио #1
Идентификатор : 2
Формат : AC-3
Формат/Информация : Audio Coding 3
Расширение режима : CM (complete main)
Параметр Endianness формата : Big
Идентификатор кодека : A_AC3
Продолжительность : 1 ч. 44 м.
Вид битрейта : Постоянный
Битрейт : 640 Кбит/сек
Каналы : 6 каналов
Расположение каналов : Front: L C R, Side: L R, LFE
Частота : 48,0 КГц
Битовая глубина : 16 бит
Метод сжатия : С потерями
Размер потока : 481 Мбайт (5%)
Заголовок : AC3 5.1 / 640 kbps / Dub
Язык : Russian
Default : Да
Forced : Нет
Аудио #2
Идентификатор : 3
Формат : AC-3
Формат/Информация : Audio Coding 3
Расширение режима : CM (complete main)
Параметр Endianness формата : Big
Идентификатор кодека : A_AC3
Продолжительность : 1 ч. 44 м.
Вид битрейта : Постоянный
Битрейт : 640 Кбит/сек
Каналы : 6 каналов
Расположение каналов : Front: L C R, Side: L R, LFE
Частота : 48,0 КГц
Битовая глубина : 16 бит
Метод сжатия : С потерями
Размер потока : 481 Мбайт (5%)
Язык : English
Default : Нет
Forced : Нет
Текст #1
Идентификатор : 4
Формат : UTF-8
Идентификатор кодека : S_TEXT/UTF8
Идентификатор кодека/Информация : UTF-8 Plain Text
Заголовок : Full (notabenoid)
Язык : Russian
Default : Нет
Forced : Нет
Текст #2
Идентификатор : 5
Формат : UTF-8
Идентификатор кодека : S_TEXT/UTF8
Идентификатор кодека/Информация : UTF-8 Plain Text
Заголовок : Full
Язык : English
Default : Нет
Forced : Нет
Текст #3
Идентификатор : 6
Формат : UTF-8
Идентификатор кодека : S_TEXT/UTF8
Идентификатор кодека/Информация : UTF-8 Plain Text
Заголовок : SDH
Язык : English
Default : Нет
Forced : Нет
Меню
00:00:00.000 : en:00:00:00.000
00:05:27.077 : en:00:05:27.077
00:09:51.674 : en:00:09:51.674
00:15:58.457 : en:00:15:58.457
00:19:52.858 : en:00:19:52.858
00:26:45.103 : en:00:26:45.103
00:32:36.621 : en:00:32:36.621
00:38:18.838 : en:00:38:18.838
00:47:35.811 : en:00:47:35.811
00:52:17.718 : en:00:52:17.718
01:03:25.218 : en:01:03:25.218
01:09:02.930 : en:01:09:02.930
01:17:27.309 : en:01:17:27.309
01:23:46.521 : en:01:23:46.521
01:30:04.149 : en:01:30:04.149
01:35:08.119 : en:01:35:08.119
--Релиз группы:

Проверено на встроенном плейере ТВ LG 42LW4500
--18.05.2014. Релиз обновлён - русская дорога заменена на лицензию СЕЕ.
Желающие, скачайте заново торрент-файл.
Остальные раздачи этого фильма (4)
Благодарности релизеру (55)

Торрент:

Статус:

Размер:

Зарегистрирован   [ 2014-05-18 14:12 ]

проверено

9.84 GB

 
 Мнение о фильме (51)

1, 2, 3  След.






Смотрел в кинотеатре, хороший фильм
 

Фильм никакой, лучше документалку посмотреть про помпеи. У главной героини глупое лицо, типа как я сюда попала. Главный герой весь фильм тужится быть серьезным, типа гладиатор. Спец эффекты стандартные, ничего особенного. 3D просто нет. Во общем муть.
 

3D просто нет.
3Д нормальное. Выкинь телик.
 

vovan8,
Может вы путаете 2D c 3D, и телек 2D. Посмотрите повнимательней, без очков.
 

Ничего я не путаю. Смотрел на 3Д проекторе. Говорю что объем тут есть,вылеты есть. Что еще надо? А реал стерео или конверт это вопрос третий.
 

Мне одному это творение что то напомнило?Невольно возникают аналогии.Коварный сенатор прогнившей империи питается силой затащить свободолюбивую девицу замуж,но его планы рушат лихой гладиатор с британских островов и его друг чернокожий дядя Барак.Всё это на фоне летящих с неба булыжников и огненных коктейлей.В итоге все эффектно гибнут от извержения мощного супервулкана.Что это-случайное совпадение?И как во время состоялась премьера-20февраля.Фильмец дрянь.Сюжет предсказывается после первых 10 минут просмотра.Когда мир накушается этого спецэфектного говна?
 

Коварный сенатор прогнившей империи питается силой затащить свободолюбивую девицу замуж,но его планы рушат лихой гладиатор с британских островов и его друг чернокожий дядя Барак.Всё это на фоне летящих с неба булыжников и огненных коктейлей.В итоге все эффектно гибнут
вот это фантазия))
а по моему сие "творение" пример того как не надо тратить стомиллионный бюджет, либо же наоборот как можно его потратить распилить.
 

ПОЛНОСТЬЮ СОГЛАСЕН С РЕЙТИНГОМ ФИЛЬМА Рейтинг 3D:
10 голосов
7.7
Рейтинг фильма:
9 голосов 5.6
 

фильм фуфло и звук плохой,второй план музыки громче слов героев!
 

Что на обложке Медведев забыл?
 

Фильм понравился. Спасибо.
 
Виталий Цыганов Профиль 06-Май-2014 20:15

3D нормальное, а вот со звуком проблемы.Смотрел со звуком телевизора - часто пропадают голоса, вернее, уходят в почти неслышимые. Сам фильм сюжетно слабый, но смотреть можно, лучше, чем Геракл. Спецэффекты ожидаемые, и революции в кино не сделают, хотя сделаны старательно. Как ни странно, понравились актеры, хотя играть им особо нечего, все шаблонно. Ну и основное впечатление - Джон Сноу перебрался в более теплые края ;), погреться, наверное.
Мне одному это творение что то напомнило?Невольно возникают аналогии.
Хороший пример того, что телевизор - это не только хорошие 3D и 2D фильмы.
 

жуткая шлачина.3D тоже почемуто не заметил...=(
 

Ну и бред!!!
 

фильм норма ! 3D тоже !
 

Фильм хороший, спецэффекты на высоте, 3д норм. Непонимаю нытиков типа сюжет плохой и.т.п. За чем вам 3д телеки ваще? Для шедевров со смыслом 3д не нужно. От 3д фильма требуется только зрелищность. Типа аватар с мега-смыслом - та же сказка про плохих людей и хороших синих гуманоидов. Клевый голивудский фильм короче.
 

в отличие от многих собратьев по цеху, Пол Андерсон демонстрирует завидную плодовитость, кино норм, на раз, в отличие от многих киношедевров - обошлось без фейспалма...
 

Фильм отстой,но естественно спасибо релизеру.
 

не смотрел но поддерживаю.
 

не смотрел но поддерживаю.
Рабинович напел?
 

Страница 1 из 3

1, 2, 3  След.