Торренты   
 
 

 

Помпеи / Pompeii (Пол У. С. Андерсон) [2014 г.,BDRip, Anamorph SideBySide]

Рейтинг 3D:
134 голосов
7.3
Рейтинг фильма:
135 голосов
6.2
 
Вы должны быть авторизированы,
чтобы ставить оценки


Помпеи / Pompeii
Год выпуска: 2014
Страна: Канада, Германия
Жанр: боевик, драма, мелодрама, приключения
Продолжительность: 01:44:59
Перевод: Профессиональный (полное дублирование)
Режиссер: Пол У. С. Андерсон
В ролях: Кит Харингтон, Эмили Браунинг, Кифер Сазерленд, Адевале Акинойе-Агбаже, Джаред Харрис, Кэрри-Энн Мосс, Джессика Лукас, Саша Ройз, Джо Пинг, Карри Грэм
Описание: История любви раба Майло и благородной Кассии, обрученной с римским сенатором, на фоне извержения Везувия, которое навсегда стерло с лица земли древнеримский город Помпеи…
Релиз группы:
Формат 3D: BDRip, Anamorph SideBySide
Порядок ракурсов: Левый ракурс первый
Видео: AVC, High@L4.0, 1920х1080, 23,976 кадра/сек, 7725 Кбит/сек
Аудио: Rus, AC-3, 2 канала, 192 Кбит/сек, 48,0 КГц
Аудио: Eng, AC-3, 6 каналов, 640 Кбит/сек, 48,0 КГц

Скриншоты




Media Info

Общее
Уникальный идентификатор : 226151917552888710209244837364412769700 (0xAA2346665F304B78B7C5A47435F4E5A4)
Полное имя : E:\STEREO SBS\Pompeii_HalfSBS_Rip by Dag13.mkv
Формат : Matroska
Версия формата : Version 2
Размер файла : 6,40 Гбайт
Продолжительность : 1 ч. 44 м.
Общий поток : 8731 Кбит/сек
Дата кодирования : UTC 2014-05-06 14:51:05
Программа кодирования : mkvmerge v3.4.0 ('Rapunzel') сборка от May 15 2010 09:38:20
Библиотека кодирования : libebml v0.8.0 + libmatroska v0.9.0
Видео
Идентификатор : 1
Формат : AVC
Формат/Информация : Advanced Video Codec
Профиль формата : High@L4.0
Параметр CABAC формата : Да
Параметр ReFrames формата : 4 кадра
Идентификатор кодека : V_MPEG4/ISO/AVC
Продолжительность : 1 ч. 44 м.
Битрейт : 7725 Кбит/сек
Ширина : 1920 пикселей
Высота : 1080 пикселей
Соотношение сторон : 16:9
Режим частоты кадров : Постоянный
Частота кадров : 23,976 кадра/сек
Цветовое пространство : YUV
Субдискретизация насыщенности : 4:2:0
Битовая глубина : 8 бит
Тип развёртки : Прогрессивная
Бит/(Пиксели*Кадры) : 0.155
Размер потока : 5,66 Гбайт (88%)
Заголовок : Rip by Dag13
Библиотека кодирования : x264 core 116 r2074 2641b9e
Настройки программы : cabac=1 / ref=4 / deblock=1:-3:-3 / analyse=0x3:0x113 / me=umh / subme=9 / psy=1 / psy_rd=1.00:0.00 / mixed_ref=1 / me_range=16 / chroma_me=1 / trellis=2 / 8x8dct=1 / cqm=0 / deadzone=21,11 / fast_pskip=1 / chroma_qp_offset=-2 / threads=9 / sliced_threads=0 / nr=0 / decimate=1 / interlaced=0 / bluray_compat=0 / constrained_intra=0 / bframes=6 / b_pyramid=2 / b_adapt=2 / b_bias=0 / direct=3 / weightb=1 / open_gop=0 / weightp=2 / keyint=250 / keyint_min=23 / scenecut=40 / intra_refresh=0 / rc_lookahead=60 / rc=crf / mbtree=1 / crf=18.0 / qcomp=0.60 / qpmin=1 / qpmax=69 / qpstep=4 / ip_ratio=1.40 / aq=1:1.00
Язык : English
Default : Нет
Forced : Нет
Аудио #1
Идентификатор : 2
Формат : AC-3
Формат/Информация : Audio Coding 3
Расширение режима : CM (complete main)
Параметр Endianness формата : Big
Идентификатор кодека : A_AC3
Продолжительность : 1 ч. 44 м.
Вид битрейта : Постоянный
Битрейт : 192 Кбит/сек
Каналы : 2 канала
Расположение каналов : Front: L R
Частота : 48,0 КГц
Битовая глубина : 16 бит
Метод сжатия : С потерями
Размер потока : 144 Мбайт (2%)
Язык : Russian
Default : Да
Forced : Нет
Аудио #2
Идентификатор : 3
Формат : AC-3
Формат/Информация : Audio Coding 3
Расширение режима : CM (complete main)
Параметр Endianness формата : Big
Идентификатор кодека : A_AC3
Продолжительность : 1 ч. 44 м.
Вид битрейта : Постоянный
Битрейт : 640 Кбит/сек
Каналы : 6 каналов
Расположение каналов : Front: L C R, Side: L R, LFE
Частота : 48,0 КГц
Битовая глубина : 16 бит
Метод сжатия : С потерями
Размер потока : 481 Мбайт (7%)
Язык : English
Default : Нет
Forced : Нет
Остальные раздачи этого фильма (4)
Благодарности релизеру (5)

Торрент:

Статус:

Размер:

Зарегистрирован   [ 2014-05-06 19:15 ]

проверено

6.4 GB

 
 Мнение о фильме (51)

1, 2, 3  След.






Смотрел в кинотеатре, хороший фильм
 

Фильм никакой, лучше документалку посмотреть про помпеи. У главной героини глупое лицо, типа как я сюда попала. Главный герой весь фильм тужится быть серьезным, типа гладиатор. Спец эффекты стандартные, ничего особенного. 3D просто нет. Во общем муть.
 

3D просто нет.
3Д нормальное. Выкинь телик.
 

vovan8,
Может вы путаете 2D c 3D, и телек 2D. Посмотрите повнимательней, без очков.
 

Ничего я не путаю. Смотрел на 3Д проекторе. Говорю что объем тут есть,вылеты есть. Что еще надо? А реал стерео или конверт это вопрос третий.
 

Мне одному это творение что то напомнило?Невольно возникают аналогии.Коварный сенатор прогнившей империи питается силой затащить свободолюбивую девицу замуж,но его планы рушат лихой гладиатор с британских островов и его друг чернокожий дядя Барак.Всё это на фоне летящих с неба булыжников и огненных коктейлей.В итоге все эффектно гибнут от извержения мощного супервулкана.Что это-случайное совпадение?И как во время состоялась премьера-20февраля.Фильмец дрянь.Сюжет предсказывается после первых 10 минут просмотра.Когда мир накушается этого спецэфектного говна?
 

Коварный сенатор прогнившей империи питается силой затащить свободолюбивую девицу замуж,но его планы рушат лихой гладиатор с британских островов и его друг чернокожий дядя Барак.Всё это на фоне летящих с неба булыжников и огненных коктейлей.В итоге все эффектно гибнут
вот это фантазия))
а по моему сие "творение" пример того как не надо тратить стомиллионный бюджет, либо же наоборот как можно его потратить распилить.
 

ПОЛНОСТЬЮ СОГЛАСЕН С РЕЙТИНГОМ ФИЛЬМА Рейтинг 3D:
10 голосов
7.7
Рейтинг фильма:
9 голосов 5.6
 

фильм фуфло и звук плохой,второй план музыки громче слов героев!
 

Что на обложке Медведев забыл?
 

Фильм понравился. Спасибо.
 
Виталий Цыганов Профиль 06-Май-2014 20:15

3D нормальное, а вот со звуком проблемы.Смотрел со звуком телевизора - часто пропадают голоса, вернее, уходят в почти неслышимые. Сам фильм сюжетно слабый, но смотреть можно, лучше, чем Геракл. Спецэффекты ожидаемые, и революции в кино не сделают, хотя сделаны старательно. Как ни странно, понравились актеры, хотя играть им особо нечего, все шаблонно. Ну и основное впечатление - Джон Сноу перебрался в более теплые края ;), погреться, наверное.
Мне одному это творение что то напомнило?Невольно возникают аналогии.
Хороший пример того, что телевизор - это не только хорошие 3D и 2D фильмы.
 

жуткая шлачина.3D тоже почемуто не заметил...=(
 

Ну и бред!!!
 

фильм норма ! 3D тоже !
 

Фильм хороший, спецэффекты на высоте, 3д норм. Непонимаю нытиков типа сюжет плохой и.т.п. За чем вам 3д телеки ваще? Для шедевров со смыслом 3д не нужно. От 3д фильма требуется только зрелищность. Типа аватар с мега-смыслом - та же сказка про плохих людей и хороших синих гуманоидов. Клевый голивудский фильм короче.
 

в отличие от многих собратьев по цеху, Пол Андерсон демонстрирует завидную плодовитость, кино норм, на раз, в отличие от многих киношедевров - обошлось без фейспалма...
 

Фильм отстой,но естественно спасибо релизеру.
 

не смотрел но поддерживаю.
 

не смотрел но поддерживаю.
Рабинович напел?
 

Страница 1 из 3

1, 2, 3  След.