Торренты   
 
 


Легенды: Гробница дракона / Legendary: Tomb of the Dragon [2013, BDRip, half1080p, Anamorph OverUnder] VO

Рейтинг 3D:
24 голосов
6.2
Рейтинг фильма:
24 голосов
3.9
 
Вы должны быть авторизированы,
чтобы ставить оценки


Легенды: Гробница дракона
Legendary: Tomb of the Dragon

Год выпуска: 2013
Страна: Великобритания, Китай (Midsummer Films, GFM Films, Zhongshida International Media, China Film Group)
Жанр: Боевик, Приключения
Продолжительность: 1:32:30
Перевод: Любительский одноголосый закадровый (Голосовой модуль "Татьяна")
Режиссер: Эрик Стайлз / Eric Styles
В ролях: Скотт Эдкинс (Travis Preston), Дольф Лундгрен (Harker), И Хуан (Dr. Lan Zeng), Нэйтан Ли (Brandon Hua), Джеймс Лэнс (Doug McConnell), Лидия Леонард (Katie), Гэн Лэ (Jianyu), Мюррей Клайв Уокер (Chuck), Виктор Собчак (Vadim), Том Остин (Scott), Дэвид Дженкинс (Fry)
Описание: Команда исследователей путешествует по Китаю в поисках следов доисторических животных. Случайно они находят место, где огромных размеров монстры не просто хорошо сохранились, но и живут и охотятся как ни в чем не бывало. Радость от знакомства с находками портит охотник по имени Харкер, открывший стрельбу в самый неподходящий момент. Теперь людям предстоит противостоять разбушевавшимся монстрам и спасаться бегством.-Премьера (мир): 17 мая 2013
Бюджет: $12 000 000

. .
-Качество: BDRip (by Ash61)
Контейнер: MKV
Формат 3D: Half OverUnder / Вертикальная анаморфная стереопара
Порядок ракурсов: левый ракурс первый-Видео: AVC / 23,976 fps / 1920х1080p / ~8.6 Mbps
Аудио:
#1 - Русский / AC3 / 48 KHz / 5.1 ch / 640 Kbps (VO - Голосовой модуль "Татьяна")
#2 - Английский / AC3 / 48 KHz / 5.1 ch / 640 Kbps (Original - BD 3D)
Субтитры: Внешние (SRT UTF-8) Русские Полные

MediaInfo

General
Unique ID : 230846113134255185010309973266956709462 (0xADAB581C61A6BB36867CFE74BD5A6E56)
Complete name : E:\Legendary.TombOfTheDragon(2013)3D-halfOU(Ash61)VO\Legendary.TombOfTheDragon(2013)3D-halfOU(Ash61)VO.mkv
Format : Matroska
Format version : Version 2
File size : 6.50 GiB
Duration : 1h 32mn
Overall bit rate : 10.1 Mbps
Movie name : Легенды: Гробница дракона / Legendary: Tomb of the Dragon (2013) 3D
Encoded date : UTC 2014-05-02 18:32:53
Writing application : mkvmerge v5.8.0 ('No Sleep / Pillow') built on Sep 2 2012 15:37:04
Writing library : libebml v1.2.3 + libmatroska v1.3.0
Video
ID : 1
Format : AVC
Format/Info : Advanced Video Codec
Format profile : High@L4.1
Format settings, CABAC : Yes
Format settings, ReFrames : 4 frames
Codec ID : V_MPEG4/ISO/AVC
Duration : 1h 32mn
Bit rate : 8 577 Kbps
Width : 1 920 pixels
Height : 1 080 pixels
Display aspect ratio : 16:9
Frame rate mode : Constant
Frame rate : 23.976 fps
Color space : YUV
Chroma subsampling : 4:2:0
Bit depth : 8 bits
Scan type : Progressive
Bits/(Pixel*Frame) : 0.173
Stream size : 5.54 GiB (85%)
Title : BDRip by Ash61
Writing library : x264 core 129 r2245 bc13772
Encoding settings : cabac=1 / ref=4 / deblock=1:-3:-3 / analyse=0x3:0x113 / me=umh / subme=10 / psy=1 / psy_rd=1.00:0.15 / mixed_ref=1 / me_range=32 / chroma_me=1 / trellis=2 / 8x8dct=1 / cqm=0 / deadzone=21,11 / fast_pskip=1 / chroma_qp_offset=-3 / threads=12 / lookahead_threads=2 / sliced_threads=0 / nr=0 / decimate=1 / interlaced=0 / bluray_compat=0 / constrained_intra=0 / bframes=9 / b_pyramid=2 / b_adapt=2 / b_bias=0 / direct=3 / weightb=1 / open_gop=0 / weightp=2 / keyint=250 / keyint_min=23 / scenecut=40 / intra_refresh=0 / rc_lookahead=60 / rc=crf / mbtree=1 / crf=17.5 / qcomp=0.70 / qpmin=0 / qpmax=69 / qpstep=4 / vbv_maxrate=40000 / vbv_bufsize=30000 / crf_max=0.0 / nal_hrd=none / frame-packing=4 / ip_ratio=1.40 / aq=1:0.70
Language : English
Default : Yes
Forced : No
Audio #1
ID : 2
Format : AC-3
Format/Info : Audio Coding 3
Mode extension : CM (complete main)
Format settings, Endianness : Big
Codec ID : A_AC3
Duration : 1h 32mn
Bit rate mode : Constant
Bit rate : 640 Kbps
Channel(s) : 6 channels
Channel positions : Front: L C R, Side: L R, LFE
Sampling rate : 48.0 KHz
Bit depth : 16 bits
Compression mode : Lossy
Stream size : 423 MiB (6%)
Title : Одноголосый закадровый - Татьяна
Language : Russian
Default : Yes
Forced : No
Audio #2
ID : 3
Format : AC-3
Format/Info : Audio Coding 3
Mode extension : CM (complete main)
Format settings, Endianness : Big
Codec ID : A_AC3
Duration : 1h 32mn
Bit rate mode : Constant
Bit rate : 640 Kbps
Channel(s) : 6 channels
Channel positions : Front: L C R, Side: L R, LFE
Sampling rate : 48.0 KHz
Bit depth : 16 bits
Compression mode : Lossy
Stream size : 423 MiB (6%)
Title : Original - BD 3D French
Language : English
Default : No
Forced : No
Menu
00:00:00.000 : :1
00:03:37.592 : :2
00:10:12.237 : :3
00:15:06.030 : :4
00:24:50.155 : :5
00:36:36.653 : :6
00:50:05.753 : :7
00:58:12.447 : :8
01:05:20.583 : :9
01:17:34.692 : :10
01:22:06.130 : :11
01:25:05.309 : :12

Скриншоты

Для оценки 3Д - Анимированные скрины









Остальные раздачи этого фильма (2)
Благодарности релизеру (17)

Торрент:

Статус:

Размер:

Зарегистрирован   [ 2014-05-06 20:40 ]

проверено

6.5 GB

 
 Мнение о фильме (9)





Ну что сказать,нечего!!! Фильм продолжительностью 1:32:30 ,просмотрел за 15-20 сек .ВСЁ. Вроде не Асулум, или как там его.Дольф чот сапсем...
 

Фильм очень простенький, но разок посмотреть можно. Первый фильм, где Эдкинс ни с кем не дерется ). А вот 3D настоящее и хорошее, и компьютерная анимация довольно удачная.
Очередной раз подтверждается наблюдение, что лучшее 3D встречается в фильмах "B" и "C" категорий и документалках.
 

так сибе! ребенок посмотрел - вроде понравился
 

Да-а, Дольф Лундгрен уже не тот
 

Еще одна китайская сказка.
 

Фильм неплохой,чего ждать от китайской фантастики...?
3D на хорошем уровне.
Спасибо релизеру.
 

Ужасно скучный фильм, даже Луунгрем фильм никак не вытягивает.
 

Лундгрем уже давно ничего не вытягивает.
 

СПАСИБО ! ЗАЦЕНИМ на Телевизоре Samsung UE48H6400AKXUA