Торренты   
 
 


Кот Гром и заколдованный дом / Le Manoir Magique / The House of Magic [2013, BDRip, half1080p, Anamorph SideBySide] "Чистый звук"

Рейтинг 3D:
Пока никто не голосовал
Рейтинг фильма:
Пока никто не голосовал
 
Вы должны быть авторизированы,
чтобы ставить оценки


Кот Гром и заколдованный дом / The House of Magic
Страна: США, Бельгия
Жанр: Мультфильм, семейный
Продолжительность: 01:25:28
Перевод: Дублированный [чистый звук]
Субтитры: Французские
Видео: MPEG-4 AVC, 7134 Кбит/с, 1920x1080, 23.976 кадр/с
Аудио: Русский (AC3, 2 ch, 192 Кбит/с), французский (DTS, 6 ch, 1509 Кбит/с)
Режиссер: Джереми Дегрусон, Бен Стассен
Формат 3D: Anamorph SideBySide / Горизонтальная анаморфная стереопара
Порядок ракурсов: левый ракурс первый
Описание: Любопытный рыжий кот попадает в дом старого фокусника и узнает секрет его трюков. Так начинается его знакомство с учеными зверями и живыми игрушками, а также невероятные приключения полные юмора и опасностей.
Формат 3D: Anamorph SideBySide

Скриншоты

:


MediaInfol

Unique ID : 220251100614763509114366424807466543211 (0xA5B2D1A9B5CE9C1994D3EA3A3F97286B)
Complete name : G:\Torrentino\Le.Manoir.Magique.2013.3D.BluRay.HSBS.1080p.DTS.x264-CHD3D.mkv
Format : Matroska
Format version : Version 3 / Version 2
File size : 5.35 GiB
Duration : 1h 25mn
Overall bit rate : 8 986 Kbps
Movie name : Le manoir magique 3D
Encoded by : CHD3D
Encoded date : UTC 2014-05-18 08:36:24
Writing application : mkvmerge v6.9.1 ('Blue Panther') 64bit built on Apr 18 2014 18:23:38
Writing library : x264 0.142.2389 956c8d8 / (libswscale 2.5.101) / (libavformat 55.25.101) / (ffmpegsource 2.17.4.0) / built by Komisar on Jan 22 2014, gcc: 4.8.2 (multilib.generic.Komisar) / configuration: --bit-depth=8 --chroma-format=all / x264 license: GPL version 2 or later / libswscale/libavformat/ffmpegsource license: GPL version 2 or later / (64bit)
Original source form : Blu-ray 3D
TITLE : Le manoir magique 3D
AUTHOR : BD3D2MK3D 0.34
ENCODER_SETTINGS : --crf 18 --preset medium --profile high --level 4.1 --threads auto --deblock -3:-3 --ref 4 --bframes 6 --ipratio 1.3 --b-adapt 2 --direct auto --weightb --chroma-qp-offset -2 --b-pyramid normal --qcomp 0.8 --aq-strength 0.9 --no-mbtree --merange 32 --me umh --subme 10 --partitions p8x8,b8x8,i4x4,i8x8 --8x8dct --aq-mode 2 --trellis 2 --psy-rd 1.00:0 --mixed-refs --no-dct-decimate --no-fast-pskip --frame-packing 3 --qpfile chapters_3D.qpfile
DATE_ENCODED : 2014-05-18
Attachment : Yes / Yes
Video
ID : 1
Format : AVC
Format/Info : Advanced Video Codec
Format profile : High@L4.1
MultiView_Count : 2
MultiView_Layout : Side by Side (left eye first)
Format settings, CABAC : Yes
Format settings, ReFrames : 4 frames
Codec ID : V_MPEG4/ISO/AVC
Duration : 1h 25mn
Bit rate : 7 107 Kbps
Width : 1 920 pixels
Height : 1 080 pixels
Display aspect ratio : 16:9
Frame rate mode : Constant
Frame rate : 23.976 fps
Color space : YUV
Chroma subsampling : 4:2:0
Bit depth : 8 bits
Scan type : Progressive
Bits/(Pixel*Frame) : 0.143
Stream size : 4.23 GiB (79%)
Title : 3D-HSBS
Writing library : x264 core 142 r2389 956c8d8
Encoding settings : cabac=1 / ref=4 / deblock=1:-3:-3 / analyse=0x3:0x113 / me=umh / subme=10 / psy=1 / psy_rd=1.00:0.00 / mixed_ref=1 / me_range=32 / chroma_me=1 / trellis=2 / 8x8dct=1 / cqm=0 / deadzone=21,11 / fast_pskip=0 / chroma_qp_offset=-4 / threads=6 / lookahead_threads=1 / sliced_threads=0 / nr=0 / decimate=0 / interlaced=0 / bluray_compat=0 / constrained_intra=0 / bframes=6 / b_pyramid=2 / b_adapt=2 / b_bias=0 / direct=3 / weightb=1 / open_gop=0 / weightp=2 / keyint=250 / keyint_min=23 / scenecut=40 / intra_refresh=0 / rc=crf / mbtree=0 / crf=18.0 / qcomp=0.80 / qpmin=0 / qpmax=69 / qpstep=4 / frame-packing=3 / ip_ratio=1.30 / pb_ratio=1.30 / aq=2:0.90
Default : Yes
Forced : No
Audio #1
ID : 2
Format : AC-3
Format/Info : Audio Coding 3
Mode extension : CM (complete main)
Format settings, Endianness : Big
Codec ID : A_AC3
Duration : 1h 25mn
Bit rate mode : Constant
Bit rate : 192 Kbps
Channel(s) : 2 channels
Channel positions : Front: L R
Sampling rate : 48.0 KHz
Bit depth : 16 bits
Compression mode : Lossy
Stream size : 117 MiB (2%)
Title : Russian AC3 2.0
Language : Russian
Default : Yes
Forced : No
Audio #2
ID : 3
Format : DTS
Format/Info : Digital Theater Systems
Mode : 16
Format settings, Endianness : Big
Codec ID : A_DTS
Duration : 1h 25mn
Bit rate mode : Constant
Bit rate : 1 509 Kbps
Channel(s) : 6 channels
Channel positions : Front: L C R, Side: L R, LFE
Sampling rate : 48.0 KHz
Bit depth : 24 bits
Compression mode : Lossy
Stream size : 920 MiB (17%)
Title : French DTS 5.1
Language : French
Default : No
Forced : No
Text
ID : 4
Format : VobSub
Muxing mode : zlib
Codec ID : S_VOBSUB
Codec ID/Info : The same subtitle format used on DVDs
Title : French (3D PGS)
Language : French
Default : No
Forced : No
Menu
00:00:00.000 : :1 - 0:00:00
00:04:28.768 : :2 - 0:04:28
00:10:29.378 : :3 - 0:10:29
00:15:52.076 : :4 - 0:15:52
00:24:02.774 : :5 - 0:24:02
00:31:46.321 : :6 - 0:31:46
00:38:20.840 : :7 - 0:38:20
00:45:34.148 : :8 - 0:45:34
00:53:09.352 : :9 - 0:53:09
01:01:10.875 : :10 - 1:01:10
01:07:07.148 : :11 - 1:07:07
01:17:59.549 : :12 - 1:17:59
01:25:07.852 : :13 - 1:25:07
Благодарности релизеру (44)

Торрент:

Статус:

Размер:

Зарегистрирован   [ 2014-05-23 20:58 ]

проверено

5.35 GB

 
 Мнение о фильме (21)

Пред.  1, 2






А кто подскажет почему другие раздачи этого мультфильма не работают ?
http://torrents3d.ru/article/5028/
http://torrents3d.ru/article/5034/
 

Страница 2 из 2

Пред.  1, 2