Торренты   
 
 

 

Феи: Загадка пиратского острова / The Pirate Fairy [2014 г., Anamorph OverUnder]

Рейтинг 3D:
9 голосов
7.4
Рейтинг фильма:
10 голосов
8.4
 
Вы должны быть авторизированы,
чтобы ставить оценки


Раздача закрыта правообладателем (С)
Феи: Загадка пиратского острова / The Pirate Fairy
Год выпуска: 2014
Страна: США / DisneyToon Studios, Prana Studios
Жанр: Мультфильм, фэнтези, детский, приключения
Продолжительность: 01:18:05
Перевод: Профессиональный (полное дублирование)
Режиссер: Пегги Холмс / Peggy Holmes
В ролях: Кристина Хендрикс, Мэй Уитман, Том Хиддлстон, Памела Адлон, Анджела Бартис, Меган Хилти, Люси Лью, Рэйвен, Джим Каммингс, Кевин Майкл Ричардсон
Описание: История о Зарине, смышленой и амбициозной фее, собирающей пыльцу растений. Все начинается с того, что она похищает волшебную пыльцу фей…
Доп. информация:
Качество: BDRip 1080p
Формат: MKV
Формат 3D: Half OverUnder / Вертикальная анаморфная стереопара
Порядок ракурсов: Левый ракурс первый
Видео кодек: AVC
Аудио кодек: AC3
Видео: AVC, 1920x1080 (16:9), 23.976 fps, 9 252 Kbps (0.186 bit/pixel)
Аудио:
AC-3, 48.0 KHz, 6 ch, 640 Kbps, CBR (Russian)
AC-3, 48.0 KHz, 6 ch, 640 Kbps, CBR (English)

Скриншоты




Media Info

Общее
Уникальный идентификатор : 202801443544796832753514483598492840333 (0x989223255BA74DE7B5A8BF32A412318D)
Полное имя : F:\my films\PIRATEFAIRY_3D.mkv
Формат : Matroska
Версия формата : Version 2
Размер файла : 5,85 Гбайт
Продолжительность : 1 ч. 18 м.
Общий поток : 10,7 Мбит/сек
Название фильма : PIRATEFAIRY_3D_Half_O/U
Дата кодирования : UTC 2014-05-22 10:42:18
Программа кодирования : mkvmerge v5.3.0 ('I could have danced') built on Feb 9 2012 10:38:07
Библиотека кодирования : libebml v1.2.3 + libmatroska v1.3.0
Видео
Идентификатор : 1
Формат : AVC
Формат/Информация : Advanced Video Codec
Профиль формата : High@L4.1
Параметр CABAC формата : Да
Параметр ReFrames формата : 4 кадра
Идентификатор кодека : V_MPEG4/ISO/AVC
Продолжительность : 1 ч. 18 м.
Битрейт : 9252 Кбит/сек
Ширина : 1920 пикселей
Высота : 1080 пикселей
Соотношение сторон : 16:9
Режим частоты кадров : Постоянный
Частота кадров : 23,976 кадра/сек
Цветовое пространство : YUV
Субдискретизация насыщенности : 4:2:0
Битовая глубина : 8 бит
Тип развёртки : Прогрессивная
Бит/(Пиксели*Кадры) : 0.186
Размер потока : 5,04 Гбайт (86%)
Заголовок : rip by I/N
Библиотека кодирования : x264 core 128 r2216M 198a7ea
Настройки программы : cabac=1 / ref=4 / deblock=1:-3:-3 / analyse=0x3:0x133 / me=umh / subme=10 / psy=1 / psy_rd=1.00:0.15 / mixed_ref=1 / me_range=32 / chroma_me=1 / trellis=2 / 8x8dct=1 / cqm=0 / deadzone=21,11 / fast_pskip=1 / chroma_qp_offset=-3 / threads=8 / lookahead_threads=1 / sliced_threads=0 / nr=0 / decimate=1 / interlaced=0 / bluray_compat=0 / constrained_intra=0 / bframes=6 / b_pyramid=2 / b_adapt=2 / b_bias=0 / direct=3 / weightb=1 / open_gop=0 / weightp=2 / keyint=230 / keyint_min=23 / scenecut=40 / intra_refresh=0 / rc_lookahead=60 / rc=crf / mbtree=1 / crf=17.0 / qcomp=0.60 / qpmin=0 / qpmax=69 / qpstep=4 / vbv_maxrate=40000 / vbv_bufsize=30000 / crf_max=30.0 / nal_hrd=none / ip_ratio=1.40 / aq=1:1.00
Default : Да
Forced : Нет
Аудио #1
Идентификатор : 2
Формат : AC-3
Формат/Информация : Audio Coding 3
Расширение режима : CM (complete main)
Параметр Endianness формата : Big
Идентификатор кодека : A_AC3
Продолжительность : 1 ч. 18 м.
Вид битрейта : Постоянный
Битрейт : 640 Кбит/сек
Каналы : 6 каналов
Расположение каналов : Front: L C R, Side: L R, LFE
Частота : 48,0 КГц
Битовая глубина : 16 бит
Метод сжатия : С потерями
Размер потока : 357 Мбайт (6%)
Заголовок : Дубляж
Язык : Russian
Default : Да
Forced : Нет
Аудио #2
Идентификатор : 3
Формат : AC-3
Формат/Информация : Audio Coding 3
Расширение режима : CM (complete main)
Параметр Endianness формата : Big
Идентификатор кодека : A_AC3
Продолжительность : 1 ч. 18 м.
Вид битрейта : Постоянный
Битрейт : 640 Кбит/сек
Каналы : 6 каналов
Расположение каналов : Front: L C R, Side: L R, LFE
Частота : 48,0 КГц
Битовая глубина : 16 бит
Метод сжатия : С потерями
Размер потока : 357 Мбайт (6%)
Заголовок : Original
Язык : English
Default : Нет
Forced : Нет
Меню
00:00:00.000 : en:(01)00:00:00:000
00:05:00.000 : en:(02)00:05:00:000
00:10:00.000 : en:(03)00:10:00:000
00:15:00.000 : en:(04)00:15:00:000
00:20:00.000 : en:(05)00:20:00:000
00:25:00.000 : en:(06)00:25:00:000
00:30:00.000 : en:(07)00:30:00:000
00:35:00.000 : en:(08)00:35:00:000
00:40:00.000 : en:(09)00:40:00:000
00:45:00.000 : en:(10)00:45:00:000
00:50:00.000 : en:(11)00:50:00:000
00:55:00.000 : en:(12)00:55:00:000
01:00:00.000 : en:(13)01:00:00:000
01:05:00.000 : en:(14)01:05:00:000
01:10:00.000 : en:(15)01:10:00:000
01:15:00.000 : en:(16)01:15:00:000
Благодарности релизеру (16)

Торрент:

Статус:

Размер:

Зарегистрирован   [ 2014-05-24 12:37 ]

© закрыто правообладателем

5.85 GB