Торренты   
 
 


Лего фильм / he Lego Movie (Фил Лорд, Крис Миллер, Крис МакКэй) [2014 г., Anamorph SideBySide, Crop Anamorph OverUnder]

Рейтинг 3D:
11 голосов
6.3
Рейтинг фильма:
12 голосов
5.7
 
Вы должны быть авторизированы,
чтобы ставить оценки


Лего фильм / he Lego Movie
Год выпуска: 2014
Страна: США
Жанр: Мультфильм, фэнтези, комедия, приключения, семейный
Продолжительность: 01:40:35
Перевод: Профессиональный (полное дублирование)
Режиссер: Фил Лорд, Крис Миллер, Крис МакКэй
В ролях: Уилл Феррелл, Лиам Нисон, Элисон Бри, Морган Фримен, Элизабет Бэнкс, Крис Прэтт, Уилл Арнетт, Ник Офферман, Джэдон Сэнд
Описание: Обычная лего-фигурка, ошибочно считающая себя фигуркой из элитного набора, соглашается присоединиться к походу против злого лего-диктатора, планирующего склеить вместе всю вселенную…
Дополнительно: В раздаче 2 фильма: Анаморф горизонтальный и кроп!
Формат 3D: Anamorph SideBySide, Crop Anamorph OverUnder
Видео: MPEG-4 AVC, 12100 Кбит/с, 1920x1080, 23.976 кадр/с, AVC, 1920x1080 (16:9), 23.976 fps, 11.0 Mbps (0.221 bit/pixel)

Скриншоты








Media Info

General
Unique ID : 189624442984736468675018813762434556812 (0x8EA856DBEB64FBCE8475735EE3F8E38C)
Complete name : G:\Torrentino\Lego.Film.3D.H-SBS.[torrent3d.ru].mkv
Format : Matroska
Format version : Version 2
File size : 8.93 GiB
Duration : 1h 40mn
Overall bit rate : 12.7 Mbps
Movie name : Lego.Film.3D.[torrent3d.ru]
Encoded date : UTC 2014-05-29 21:33:12
Writing application : mkvmerge v4.0.0 ('The Stars were mine') сборка от Jun 6 2010 16:18:42
Writing library : libebml v1.0.0 + libmatroska v1.0.0
Video
ID : 1
Format : AVC
Format/Info : Advanced Video Codec
Format profile : High@L4.1
Format settings, CABAC : Yes
Format settings, ReFrames : 2 frames
Codec ID : V_MPEG4/ISO/AVC
Duration : 1h 40mn
Bit rate : 12.1 Mbps
Width : 1 920 pixels
Height : 1 080 pixels
Display aspect ratio : 16:9
Frame rate mode : Constant
Frame rate : 23.976 fps
Color space : YUV
Chroma subsampling : 4:2:0
Bit depth : 8 bits
Scan type : Progressive
Bits/(Pixel*Frame) : 0.243
Stream size : 8.49 GiB (95%)
Writing library : x264 core
Default : Yes
Forced : No
Color primaries : BT.709
Transfer characteristics : BT.709
Matrix coefficients : BT.709
Audio
ID : 2
Format : AC-3
Format/Info : Audio Coding 3
Mode extension : CM (complete main)
Format settings, Endianness : Big
Codec ID : A_AC3
Duration : 1h 40mn
Bit rate mode : Constant
Bit rate : 384 Kbps
Channel(s) : 6 channels
Channel positions : Front: L C R, Side: L R, LFE
Sampling rate : 48.0 KHz
Bit depth : 16 bits
Compression mode : Lossy
Stream size : 276 MiB (3%)
Default : Yes
Forced : No
Menu
00:00:00.000 : en:(01)00:00:00:000
00:09:44.041 : en:(02)00:09:44:041
00:18:18.388 : en:(03)00:18:18:388
00:29:50.747 : en:(04)00:29:50:747
00:38:48.034 : en:(05)00:38:48:034
00:48:45.047 : en:(06)00:48:45:047
00:57:49.424 : en:(07)00:57:49:424
01:06:05.252 : en:(08)01:06:05:252
01:16:24.204 : en:(09)01:16:24:204
01:25:56.151 : en:(10)01:25:56:151
01:32:57.321 : en:(11)01:32:57:321
01:40:35.070 : en:(12)01:40:35:070
 Мнение о фильме (17)





а без полос -можно?
 

Думаю скоро появится, блюрик уже есть)))
 

Думаю скоро появится, блюрик уже есть)))
а чо в блюрике нет полос?
 

Аnатоliy052, Есть. Я про кроп.
 

Раздача обновлена!!! Добавлен Crop.
 

D.akaSS, так нельзя делать - кроп надо выложить отдельным релизом в разделе кропов! Исправьте...
Статус - Недооформлено.
И, как пожелание, - не забывайте указывать авторство рипа (хотя бы отечественных рипперов)!
 

От за это большое человеческое спасибо!И в оригинальном разрешении и в кропе!(не понимаю,почему нельзя ложить 2 файла вместе-никому ведь от этого не хуже.Каждый сам возьмет,что ему надо.И релизеру легче-меньше с оформлением возиться...)имхо
 

ash61, в раздел кропов не хочется, т.к. рип не мой, в качестве не уверен, и местную "фишку" левыми раздачами засорять не хочется, т.к. на данный момент это единственный раздел раздач которому доверяю на 100%.
Выкладывал арт33.
П.С.: Поддерживаю KOPA07 так удобнее, когда есть сравнение.
 

D.akaSS, ладно, пусть решают наши главные модераторы.
Я на них давить не буду, но остаюсь при своём мнении - упорядоченность на трекере обязана быть.
 

а как скачать кроп,подскажите.нехочет качать ничего вообще.торент файл какой-то странный,неоткрывается.Спасибо ненадо.нашел на другом сайте.
 

polhandr, Кликнуть Скачать торрент и выбрать THE_LEGO_MOVIE_3D_CROP.mkv. С уторрентом проблем нет (во всяком случае у меня)))
 

StarStranger выложил вертикальный анаморф с полосами, нужно ли обновлять раздачу до "весь анаморф из однго флакона"?
 

...нужно ли обновлять раздачу до "весь анаморф из однго флакона"?
Разумеется нет. И эта-то Ваша раздача вряд ли останется в таком, объединённом виде.
 

Смотрели в кинотеатре-не айс! Спасибо за раздачу!
 

Ожидал чего то большего.Вроде и народ на мультик шёл, а на самом деле один раз посмотреть,3д ниже среднего, много замыленых фонов, может косяк рипа, конечно.В общем ничего непотеряете, если непосмотрите.Спасибо.
 

Просто жуть, не выдержал и 5 минут, специально пролистал, вылетов не увидел там где они обязаны быть (хотя возможно и косяк рипа), перед выключением компа сношу нафиг.
 

На любителя. 3д .... а оно вообще есть в этом мульте ? Так что как сказано выше " если не посмотрите ничего не потеряете "