Торренты   
 
 


Лего. Фильм / The Lego Movie (Фил Лорд, Кристофер Миллер) [2014 г., Anamorph OverUnder]

Рейтинг 3D:
32 голосов
6.8
Рейтинг фильма:
33 голосов
6.5
 
Вы должны быть авторизированы,
чтобы ставить оценки


Лего. Фильм / The Lego Movie
Год выпуска: 2014
Страна: Warner Bros., Village Roadshow Pictures, LEGO (Австралия, США, Дания)
Жанр: мультфильм, фэнтези, комедия, приключения, семейный
Продолжительность: 1:40:35
Режиссер: Фил Лорд, Кристофер Миллер
В ролях: Крис Прэтт, Уилл Феррелл, Элизабет Бэнкс, Уилл Арнетт, Лиам Нисон, Морган Фриман, Крэйг Берри, Элисон Бри, Дэвид Берроуз, Энтони Дэниелс
Роли дублировали: Константин Карасик, Александр Ревва, Алексей Колган, Ирина Киреева, Гоша Куценко
Описание: Обычная лего-фигурка соглашается присоединиться к походу против злого лего-диктатора, планирующего склеить вместе всю вселенную...
Качество: BDrip
Контейнер: MKV
Формат 3D: Anamorph OverUnder / Вертикальная анаморфная стереопара
Порядок ракурсов: левый ракурс первый
Видео кодек: x264
Аудио кодек: AC-3
Видео: AVC, High@L4.1, 1920х1080, 23,976 кадра/сек, 5871 Кбит/сек
Аудио:
#1 - Русский / AC3 / 48 KHz / 5.1 ch / 384 Kbps (Дубляж - iTunes)
#2 - Украинский / AC3 / 48 KHz / 2 ch / 192 Kbps (Дубляж - iTunes)
#3 - Английский / AC3 / 48 KHz / 5.1 ch / 640 Kbps (Original - BD 3D)
Субтитры: Русские, английские, украинские

Скриншоты

Media Info

Общее
Уникальный идентификатор : 230972663030280747468205558458317518858 (0xADC3B780A147AD9286B04231D047B80A)
Полное имя : H:\Source\TheLegoMovie.3D.2014.BDrip.Half.OU.x264.AC3.iTunes.(itsamna).mkv
Формат : Matroska
Версия формата : Version 4 / Version 2
Размер файла : 5,08 Гбайт
Продолжительность : 1 ч. 40 м.
Общий поток : 7231 Кбит/сек
Название фильма : The Lego Movie (2014) 3D
Дата кодирования : UTC 2014-05-31 06:14:32
Программа кодирования : mkvmerge v6.8.0 ('Theme for Great Cities') 32bit built on Mar 2 2014 21:27:07
Библиотека кодирования : libebml v1.3.0 + libmatroska v1.4.1
Видео
Идентификатор : 1
Формат : AVC
Формат/Информация : Advanced Video Codec
Профиль формата : High@L4.1
Параметр CABAC формата : Да
Параметр ReFrames формата : 4 кадра
Идентификатор кодека : V_MPEG4/ISO/AVC
Продолжительность : 1 ч. 40 м.
Битрейт : 5871 Кбит/сек
Ширина : 1920 пикселей
Высота : 1080 пикселей
Соотношение сторон : 16:9
Режим частоты кадров : Постоянный
Частота кадров : 23,976 кадра/сек
Цветовое пространство : YUV
Субдискретизация насыщенности : 4:2:0
Битовая глубина : 8 бит
Тип развёртки : Прогрессивная
Бит/(Пиксели*Кадры) : 0.118
Размер потока : 4,13 Гбайт (81%)
Библиотека кодирования : x264 core 130 r2273 b3065e6
Настройки программы : cabac=1 / ref=4 / deblock=1:-3:-3 / analyse=0x3:0x133 / me=umh / subme=10 / psy=1 / psy_rd=1.00:0.15 / mixed_ref=1 / me_range=32 / chroma_me=1 / trellis=2 / 8x8dct=1 / cqm=0 / deadzone=21,11 / fast_pskip=0 / chroma_qp_offset=-3 / threads=12 / lookahead_threads=2 / sliced_threads=0 / nr=0 / decimate=1 / interlaced=0 / bluray_compat=0 / constrained_intra=0 / bframes=8 / b_pyramid=2 / b_adapt=2 / b_bias=0 / direct=3 / weightb=1 / open_gop=0 / weightp=2 / keyint=250 / keyint_min=23 / scenecut=40 / intra_refresh=0 / rc_lookahead=60 / rc=crf / mbtree=1 / crf=18.0 / qcomp=0.60 / qpmin=0 / qpmax=69 / qpstep=4 / vbv_maxrate=50000 / vbv_bufsize=62500 / crf_max=0.0 / nal_hrd=none / ip_ratio=1.40 / aq=1:0.90
Default : Да
Forced : Нет
Аудио #1
Идентификатор : 2
Формат : AC-3
Формат/Информация : Audio Coding 3
Расширение режима : CM (complete main)
Параметр Endianness формата : Big
Идентификатор кодека : A_AC3
Продолжительность : 1 ч. 40 м.
Вид битрейта : Постоянный
Битрейт : 384 Кбит/сек
Каналы : 6 каналов
Расположение каналов : Front: L C R, Side: L R, LFE
Частота : 48,0 КГц
Битовая глубина : 16 бит
Метод сжатия : С потерями
Размер потока : 276 Мбайт (5%)
Заголовок : Дубляж - iTunes
Язык : Russian
Default : Да
Forced : Нет
Аудио #2
Идентификатор : 3
Формат : AC-3
Формат/Информация : Audio Coding 3
Расширение режима : CM (complete main)
Параметр Endianness формата : Big
Идентификатор кодека : A_AC3
Продолжительность : 1 ч. 40 м.
Вид битрейта : Постоянный
Битрейт : 192 Кбит/сек
Каналы : 2 канала
Расположение каналов : Front: L R
Частота : 48,0 КГц
Битовая глубина : 16 бит
Метод сжатия : С потерями
Размер потока : 138 Мбайт (3%)
Заголовок : Дубляж - iTunes
Язык : Ukrainian
Default : Нет
Forced : Нет
Аудио #3
Идентификатор : 4
Формат : AC-3
Формат/Информация : Audio Coding 3
Расширение режима : CM (complete main)
Параметр Endianness формата : Big
Идентификатор кодека : A_AC3
Продолжительность : 1 ч. 40 м.
Вид битрейта : Постоянный
Битрейт : 640 Кбит/сек
Каналы : 6 каналов
Расположение каналов : Front: L C R, Side: L R, LFE
Частота : 48,0 КГц
Битовая глубина : 16 бит
Метод сжатия : С потерями
Размер потока : 460 Мбайт (9%)
Заголовок : Original - BD 3D
Язык : English
Default : Нет
Forced : Нет
Текст #1
Идентификатор : 5
Формат : UTF-8
Идентификатор кодека : S_TEXT/UTF8
Идентификатор кодека/Информация : UTF-8 Plain Text
Заголовок : Форсированные
Язык : Russian
Default : Да
Forced : Нет
Текст #2
Идентификатор : 6
Формат : UTF-8
Идентификатор кодека : S_TEXT/UTF8
Идентификатор кодека/Информация : UTF-8 Plain Text
Заголовок : Полные
Язык : Russian
Default : Нет
Forced : Нет
Текст #3
Идентификатор : 7
Формат : UTF-8
Идентификатор кодека : S_TEXT/UTF8
Идентификатор кодека/Информация : UTF-8 Plain Text
Заголовок : Форсированные
Язык : Ukrainian
Default : Нет
Forced : Нет
Текст #4
Идентификатор : 8
Формат : UTF-8
Идентификатор кодека : S_TEXT/UTF8
Идентификатор кодека/Информация : UTF-8 Plain Text
Заголовок : Полные
Язык : Ukrainian
Default : Нет
Forced : Нет
Текст #5
Идентификатор : 9
Формат : UTF-8
Идентификатор кодека : S_TEXT/UTF8
Идентификатор кодека/Информация : UTF-8 Plain Text
Заголовок : Full
Язык : English
Default : Нет
Forced : Нет
Текст #6
Идентификатор : 10
Формат : UTF-8
Идентификатор кодека : S_TEXT/UTF8
Идентификатор кодека/Информация : UTF-8 Plain Text
Заголовок : SDH
Язык : English
Default : Нет
Forced : Нет
Меню
00:00:00.000 : :1
00:09:44.042 : :2
00:18:18.389 : :3
00:29:50.747 : :4
00:38:48.034 : :5
00:48:45.047 : :6
00:57:49.424 : :7
01:06:05.253 : :8
01:16:24.205 : :9
01:25:56.151 : :10
01:32:57.322 : :11
--Релиз группы:

Проверено на встроенном плейере ТВ LG 42LW4500
--
Остальные раздачи этого фильма (3)
Благодарности релизеру (24)

Торрент:

Статус:

Размер:

Зарегистрирован   [ 2014-05-31 12:05 ]

проверено

5.08 GB

 
 Мнение о фильме (2)





классный мультик! много экшена, пародий и юмора. давно ждал и с огромным удовольствием посмотрел!
 

Спасибо за скорость,скорости вообще нет.