Торренты   
 
 


Проклятье 3D 2 / Sadako 3D 2 [2013, BDRip, half1080p, Anamorph OverUnder]

Рейтинг 3D:
7 голосов
6.7
Рейтинг фильма:
7 голосов
5.7
 
Вы должны быть авторизированы,
чтобы ставить оценки


Проклятье 3D 2
Sadako 3D 2

Год выпуска: 2013
Страна: Япония (Kadokawa Pictures, Tohokushinsha Film Corp.)
Жанр: Ужасы
Продолжительность: 1:35:51
Озвучки: Профессиональная дублированная (R5) и Любительская двухголосая закадровая [DeadSno & den904; перевод akira9 (р/г Колобок)]
Режиссер: Цутому Ханабуса / Tsutomu Hanabusa
В ролях: Сатоми Исихара (Akane Ayukawa), Юсуке Ямамото, Миори Такимото (Fûko Andô), Коджи Сето (Takanori Ando), Kokoro Hirasawa (Nagi)
Описание: Молодая аспирантка Фуко воспитывает свою маленькую племянницу, мать которой умерла при родах. Девочка растет крайне замкнутой и постоянно что-то рисует. В городе происходит цепь несчастных случаев. По странному стечению обстоятельств все они как-то связаны с племянницей Фуко, которая либо оказывалась рядом, либо предвидела эти случаи в своих рисунках. Что все это значит? Как связана маленькая девочка с этими трагедиями, и не угрожает ли опасность всем, кто находится рядом с ней?-Премьера: 30 августа 2013 (20 марта 2014)
Релиз на DVD (Россия): 3 июня 2014

. .
-Качество: BDRip (by Ash61)
Контейнер: MKV
Формат 3D: Half OverUnder / Вертикальная анаморфная стереопара
Порядок ракурсов: левый ракурс первый-Видео: AVC / 23,976 fps / 1920х1080p / 12.0 Mbps
Аудио:
#1 - Русский / AC3 / 48 KHz / 5.1 ch / 384 Kbps (Дубляж - R5)
#2 - Русский / AC3 / 48 KHz / 5.1 ch / 640 Kbps (DVO - DeadSno & den904)
#3 - Японский / AC3 / 48 KHz / 5.1 ch / 640 Kbps (Original - BD 3D)
Субтитры: Внешние (SRT UTF-8) English Full

MediaInfo

General
Unique ID : 187747615768652952822438509512023251337 (0x8D3EE0220DB4D3CCB72ACB4F18DE9989)
Complete name : E:\Sadako2(2013)3D-halfOU(Ash61)R5\Sadako2(2013)3D-halfOU(Ash61)R5.mkv
Format : Matroska
Format version : Version 2
File size : 9.30 GiB
Duration : 1h 35mn
Overall bit rate : 13.9 Mbps
Movie name : Проклятье 3D 2 / Sadako 3D 2 (2013) 3D
Encoded date : UTC 2014-06-02 17:28:10
Writing application : mkvmerge v5.8.0 ('No Sleep / Pillow') built on Sep 2 2012 15:37:04
Writing library : libebml v1.2.3 + libmatroska v1.3.0
Video
ID : 1
Format : AVC
Format/Info : Advanced Video Codec
Format profile : High@L4.1
Format settings, CABAC : Yes
Format settings, ReFrames : 4 frames
Codec ID : V_MPEG4/ISO/AVC
Duration : 1h 35mn
Bit rate : 12.0 Mbps
Width : 1 920 pixels
Height : 1 080 pixels
Display aspect ratio : 16:9
Frame rate mode : Constant
Frame rate : 23.976 fps
Color space : YUV
Chroma subsampling : 4:2:0
Bit depth : 8 bits
Scan type : Progressive
Bits/(Pixel*Frame) : 0.240
Stream size : 8.00 GiB (86%)
Title : BDRip by Ash61
Writing library : x264 core 129 r2245 bc13772
Encoding settings : cabac=1 / ref=4 / deblock=1:-3:-3 / analyse=0x3:0x113 / me=umh / subme=10 / psy=1 / psy_rd=1.00:0.15 / mixed_ref=1 / me_range=32 / chroma_me=1 / trellis=2 / 8x8dct=1 / cqm=0 / deadzone=21,11 / fast_pskip=1 / chroma_qp_offset=-3 / threads=12 / lookahead_threads=2 / sliced_threads=0 / nr=0 / decimate=1 / interlaced=0 / bluray_compat=0 / constrained_intra=0 / bframes=10 / b_pyramid=2 / b_adapt=2 / b_bias=0 / direct=3 / weightb=1 / open_gop=0 / weightp=2 / keyint=250 / keyint_min=23 / scenecut=40 / intra_refresh=0 / rc_lookahead=60 / rc=crf / mbtree=1 / crf=17.5 / qcomp=0.70 / qpmin=0 / qpmax=69 / qpstep=4 / vbv_maxrate=40000 / vbv_bufsize=30000 / crf_max=0.0 / nal_hrd=none / frame-packing=4 / ip_ratio=1.40 / aq=1:0.70
Language : Japanese
Default : Yes
Forced : No
Audio #1
ID : 2
Format : AC-3
Format/Info : Audio Coding 3
Mode extension : CM (complete main)
Format settings, Endianness : Big
Codec ID : A_AC3
Duration : 1h 35mn
Bit rate mode : Constant
Bit rate : 384 Kbps
Channel(s) : 6 channels
Channel positions : Front: L C R, Side: L R, LFE
Sampling rate : 48.0 KHz
Bit depth : 16 bits
Compression mode : Lossy
Stream size : 263 MiB (3%)
Title : Дубляж - R5
Language : Russian
Default : Yes
Forced : No
Audio #2
ID : 3
Format : AC-3
Format/Info : Audio Coding 3
Mode extension : CM (complete main)
Format settings, Endianness : Big
Codec ID : A_AC3
Duration : 1h 35mn
Bit rate mode : Constant
Bit rate : 640 Kbps
Channel(s) : 6 channels
Channel positions : Front: L C R, Side: L R, LFE
Sampling rate : 48.0 KHz
Bit depth : 16 bits
Compression mode : Lossy
Stream size : 439 MiB (5%)
Title : DVO - DeadSno & den904 (перевод akira9)
Language : Russian
Default : No
Forced : No
Audio #3
ID : 4
Format : AC-3
Format/Info : Audio Coding 3
Mode extension : CM (complete main)
Format settings, Endianness : Big
Codec ID : A_AC3
Duration : 1h 35mn
Bit rate mode : Constant
Bit rate : 640 Kbps
Channel(s) : 6 channels
Channel positions : Front: L C R, Side: L R, LFE
Sampling rate : 48.0 KHz
Bit depth : 16 bits
Compression mode : Lossy
Stream size : 439 MiB (5%)
Title : Оригинал - BD 3D
Language : Japanese
Default : No
Forced : No
Menu
00:00:00.000 : :1
00:07:42.837 : :2
00:17:32.385 : :3
00:22:22.633 : :4
00:33:20.957 : :5
00:40:31.512 : :6
00:45:59.215 : :7
00:56:14.413 : :8
01:04:04.382 : :9
01:11:39.587 : :10
01:21:10.657 : :11
01:29:29.239 : :12

Для оценки 3Д - Анимированные скрины















Благодарности релизеру (21)

Торрент:

Статус:

Размер:

Зарегистрирован   [ 2014-06-02 22:11 ]

проверено

9.3 GB

 
 Мнение о фильме (8)





А кроп у кого нибудь есть? Для большей жути)
 

andrey85, он и так без полос - смотрите скрины...
 

ash61, Спасибо, значит будем качать)
 

Тоже качну через пару дней. Заранее СПАСИБО)))
 

полный неадекват! Весь фильм высосан из пальца. Куча ляпов, плохая игра актёров и нескладушек. Досада от потраченного времени. От японцев такого не ожидал. А качество видео отличное, со звуком - оч. слабо.
 

На КиноПоиск гляньте сначала, а потом думайте, качать или нет.
 

Рейтинг зашкаливает!
 

Хороший фильм. В кино на него ходил в IMAX. Потрясающее ощущение увидеть известных актёров в 3D. Но показали Садако во-первых на год позже, чем в Японии; во-вторых название изменили на "Проклятие". Простой обыватель может не понять сразу, что фильм является продолжением классической японской эпопеи "Звонок".