Торренты   
 
 


Война миров: Голиаф / War of the Worlds: Goliath [2012, BDRip, half1080p, Anamorph OverUnder] VO

Рейтинг 3D:
7 голосов
6.8
Рейтинг фильма:
8 голосов
5.6
 
Вы должны быть авторизированы,
чтобы ставить оценки


Война миров: Голиаф
War of the Worlds: Goliath

Год выпуска: 2012
Страна: Малайзия, Япония, США (Barking Cow Media Group, Tripod Entertainment, MDeC, National Film Developement Corporation Malaysia)
Жанр: Аниме, Мультфильм, Фантастика, Боевик, Приключения
Продолжительность: 1:28:24
Озвучка: Любительская одноголосая закадровая - R.A.I.M
Режиссер: Джо Пирсон / Joe Pearson
Роли озвучивали (на английском): Биу Биллингсли (Abraham Douglas), Джим Бёрнс, Tony Eusoff, Элизабет Грэйсен, Эдриан Пол, Джеймс Арнольд Тейлор, Питер Уингфилд-Описание: 15 лет прошло с первого неудачного вторжения марсиан на Землю. Год 1914, канун Первой мировой войны, Марс начинает внезапную и более разрушительную вторую атаку. Малочисленные силы обороны являются единственной надеждой Земли. Грандиозный боевой треножник под названием ГОЛИАФ призван на войну, и его юный многонациональной экипаж должен встретиться со своими страхами в бою лицом к лицу, чтобы спасти человечество от инопланетных захватчиков.-Доп. информация: Русская дорога получена наложением выделенного голоса на центр оригинальной дороги. Исходная русская дорога была со значительной перегрузкой по уровню, потому и в результирующей дороге некоторые слова "тонут" в окружающих звуках.-Премьера (мир): 14 июля 2012
. .
-Качество: BDRip (by Ash61)
Контейнер: MKV
Формат 3D: Half OverUnder / Вертикальная анаморфная стереопара
Порядок ракурсов: левый ракурс первый-Видео: AVC / 23,976 fps / 1920х1080p / ~5.3 Mbps
Аудио:
#1 - Русский / AC3 / 48 KHz / 5.1 ch / 640 Kbps (VO - R.A.I.M) (сведение в 5.1 - Ash61)
#2 - Английский / AC3 / 48 KHz / 5.1 ch / 640 Kbps (Original - BD 3D)
Субтитры: Внешние (SRT UTF-8) Русские Полные (krabster11 [notabenoid])

MediaInfo

General
Unique ID : 171507549988026902078007828035629058049 (0x810727122C351B6C9E124084F52D8801)
Complete name : E:\WarOfTheWorlds.Goliath(2012)3D-halfOU(Ash61)VO-5.1\WarOfTheWorlds.Goliath(2012)3D-halfOU(Ash61)VO-5.1.mkv
Format : Matroska
Format version : Version 2
File size : 4.13 GiB
Duration : 1h 28mn
Overall bit rate : 6 691 Kbps
Movie name : Война миров: Голиаф / War of the Worlds: Goliath (2012) 3D
Encoded date : UTC 2014-06-04 18:42:57
Writing application : mkvmerge v5.8.0 ('No Sleep / Pillow') built on Sep 2 2012 15:37:04
Writing library : libebml v1.2.3 + libmatroska v1.3.0
Video
ID : 1
Format : AVC
Format/Info : Advanced Video Codec
Format profile : High@L4.1
Format settings, CABAC : Yes
Format settings, ReFrames : 4 frames
Codec ID : V_MPEG4/ISO/AVC
Duration : 1h 28mn
Bit rate : 5 278 Kbps
Width : 1 920 pixels
Height : 1 080 pixels
Display aspect ratio : 16:9
Frame rate mode : Constant
Frame rate : 23.976 fps
Color space : YUV
Chroma subsampling : 4:2:0
Bit depth : 8 bits
Scan type : Progressive
Bits/(Pixel*Frame) : 0.106
Stream size : 3.26 GiB (79%)
Title : BDRip by Ash61
Writing library : x264 core 129 r2245 bc13772
Encoding settings : cabac=1 / ref=4 / deblock=1:-3:-3 / analyse=0x3:0x113 / me=umh / subme=10 / psy=1 / psy_rd=1.00:0.15 / mixed_ref=1 / me_range=32 / chroma_me=1 / trellis=2 / 8x8dct=1 / cqm=0 / deadzone=21,11 / fast_pskip=1 / chroma_qp_offset=-3 / threads=12 / lookahead_threads=2 / sliced_threads=0 / nr=0 / decimate=1 / interlaced=0 / bluray_compat=0 / constrained_intra=0 / bframes=8 / b_pyramid=2 / b_adapt=2 / b_bias=0 / direct=3 / weightb=1 / open_gop=0 / weightp=2 / keyint=250 / keyint_min=23 / scenecut=40 / intra_refresh=0 / rc_lookahead=60 / rc=crf / mbtree=1 / crf=17.5 / qcomp=0.70 / qpmin=0 / qpmax=69 / qpstep=4 / vbv_maxrate=40000 / vbv_bufsize=30000 / crf_max=0.0 / nal_hrd=none / frame-packing=4 / ip_ratio=1.40 / aq=1:0.70
Language : English
Default : Yes
Forced : No
Audio #1
ID : 2
Format : AC-3
Format/Info : Audio Coding 3
Mode extension : CM (complete main)
Format settings, Endianness : Big
Codec ID : A_AC3
Duration : 1h 28mn
Bit rate mode : Constant
Bit rate : 640 Kbps
Channel(s) : 6 channels
Channel positions : Front: L C R, Side: L R, LFE
Sampling rate : 48.0 KHz
Bit depth : 16 bits
Compression mode : Lossy
Stream size : 405 MiB (10%)
Title : Одноголосый закадровый - R.A.I.M (сведение в 5.1 - Ash61)
Language : Russian
Default : Yes
Forced : No
Audio #2
ID : 3
Format : AC-3
Format/Info : Audio Coding 3
Mode extension : CM (complete main)
Format settings, Endianness : Big
Codec ID : A_AC3
Duration : 1h 28mn
Bit rate mode : Constant
Bit rate : 640 Kbps
Channel(s) : 6 channels
Channel positions : Front: L C R, Side: L R, LFE
Sampling rate : 48.0 KHz
Bit depth : 16 bits
Compression mode : Lossy
Stream size : 405 MiB (10%)
Title : Original - BD 3D
Language : English
Default : No
Forced : No
Menu
00:00:00.000 : :1
00:03:50.188 : :2
00:07:31.284 : :3
00:10:18.576 : :4
00:15:02.902 : :5
00:15:45.570 : :6
00:18:06.502 : :7
00:20:01.534 : :8
00:24:02.441 : :9
00:25:13.512 : :10
00:27:01.620 : :11
00:33:59.037 : :12
00:35:06.438 : :13
00:35:46.644 : :14
00:37:02.053 : :15
00:38:14.292 : :16
00:40:25.423 : :17
00:45:49.747 : :18
00:46:48.848 : :19
00:50:33.030 : :20
00:55:02.299 : :21
01:03:19.796 : :22
01:06:27.984 : :23
01:10:11.207 : :24
01:15:47.543 : :25
01:23:48.023 : :26

Для оценки 3Д - Анимированные скрины















Благодарности релизеру (25)

Торрент:

Статус:

Размер:

Зарегистрирован   [ 2014-06-05 19:57 ]

проверено

4.13 GB

 
 Мнение о фильме (7)





И как оно?
 

Я не смотрел. Но как продолжение оригинальной Войны миров (Г. Уэллса, а не с Т. Крузом), есть желание посмотреть...
 

Конечно , мне больше нравится картинка ,как в Последней фантазии и в новом Тарзане ,но мульт неплохой и заставка в начале прикольная .Спасибо !
 
евгения мурашко Профиль 06-Июн-2014 09:19

ash61 извини не по теме. но у тебя на релизе Кот Гром и заколдованный дом зайди посмотри там ошибку выдает! Скачать не возможно.
 

Prikol, видел, но это к админу или к Zagruzin'у.
 

Это не 3D - это обычный мульт, перекодированный компьютером - ни одного вылета!! Просто изображение провалено в глубину, а это можно сделать с любым фильмом. Странное сочетание - фон как объемный, скелетоны объемные, но персонажи плоские, как на рекламных щитах в супермаркетах. По сюжету - через пол часа захотелось выключить и спать - очень много в фильме болтовни.
 

DarkBlueBeard, да вы у нас эксперт :) если это так просто для вас , ДОРИСУЙТЕ на компьютере "вылеты" и начните релизить на трекере !!!
 
ВАСИЛИЙ СОЛОМОН Профиль 05-Ноя-2014 18:05