Торренты   
 
 

 

300 спартанцев: Расцвет империи / 300: Rise of an Empire (Ноам Мурро) [2014 г., Anamorph OverUnder]

Рейтинг 3D:
107 голосов
7.9
Рейтинг фильма:
106 голосов
7.4
 
Вы должны быть авторизированы,
чтобы ставить оценки


300 спартанцев: Расцвет империи / 300: Rise of an Empire Год выпуска: 2014
Страна: Warner Bros., Legendary Pictures, Cruel & Unusual Films (США)
Жанр: фэнтези, боевик, драма, военный
Продолжительность: 01:42:36
Перевод: Профессиональный (полное дублирование) iTunes Russia
Режиссер: Ноам Мурро
В ролях: Салливан Степлтон, Ева Грин, Джек О’Коннелл, Каллэн Мулвей, Ганс Мэтисон, Родриго Санторо, Лина Хиди, Дэвид Уэнэм, Эндрю Тирнан, Эндрю Плевин
Описание: После победы над царем Леонидом персидская армия во главе с Ксерксом движется на юг. На её пути оказывается флот Афин под руководством адмирала Фемистокла. Силы противников не равны, и Фемистокл вынужден вступить в союз с заклятым врагом афинского государства Спартой. Только объединившись у враждующих полисов-государств есть шанс что-то противопоставить могущественному Ксерксу.
Качество: BDrip
Контейнер: MKV
Формат 3D: Anamorph OverUnder / Вертикальная анаморфная стереопара
Порядок ракурсов: левый ракурс первый
Видео кодек: x264
Аудио кодек: AC-3
Видео: AVC, High@L4.1, 1920х1080, 23,976 кадра/сек, 9554 Кбит/сек
Звук:
Аудио 1: AC3, 6 ch, 48 kHz, 384 kbps, Russian
Аудио 2: AC3, 6 ch, 48 kHz, 640 kbps, English
Субтитры: Russian (full, forced), Ukrainian (full, forced)

Скриншоты

Media Info

Общее
Уникальный идентификатор : 193024245971902112426809084769077746282 (0x91371E168310462BBDEE194DFE76DA6A)
Полное имя : H:\Source\300.RiseOfAnEmpire.3D.2014.BDrip.Half.OU.x264.AC3.iTunes.(itsamna).mkv
Формат : Matroska
Версия формата : Version 4 / Version 2
Размер файла : 7,74 Гбайт
Продолжительность : 1 ч. 42 м.
Общий поток : 10,8 Мбит/сек
Название фильма : 300: Rise of an Empire 3D
Дата кодирования : UTC 2014-06-07 21:22:14
Программа кодирования : mkvmerge v6.8.0 ('Theme for Great Cities') 32bit built on Mar 2 2014 21:27:07
Библиотека кодирования : libebml v1.3.0 + libmatroska v1.4.1
Видео
Идентификатор : 1
Формат : AVC
Формат/Информация : Advanced Video Codec
Профиль формата : High@L4.1
Параметр CABAC формата : Да
Параметр ReFrames формата : 4 кадра
Идентификатор кодека : V_MPEG4/ISO/AVC
Продолжительность : 1 ч. 42 м.
Битрейт : 9554 Кбит/сек
Ширина : 1920 пикселей
Высота : 1080 пикселей
Соотношение сторон : 16:9
Режим частоты кадров : Постоянный
Частота кадров : 23,976 кадра/сек
Цветовое пространство : YUV
Субдискретизация насыщенности : 4:2:0
Битовая глубина : 8 бит
Тип развёртки : Прогрессивная
Бит/(Пиксели*Кадры) : 0.192
Размер потока : 6,85 Гбайт (89%)
Библиотека кодирования : x264 core 130 r2273 b3065e6
Настройки программы : cabac=1 / ref=4 / deblock=1:-3:-3 / analyse=0x3:0x133 / me=umh / subme=10 / psy=1 / psy_rd=1.00:0.15 / mixed_ref=1 / me_range=32 / chroma_me=1 / trellis=2 / 8x8dct=1 / cqm=0 / deadzone=21,11 / fast_pskip=0 / chroma_qp_offset=-3 / threads=12 / lookahead_threads=2 / sliced_threads=0 / nr=0 / decimate=1 / interlaced=0 / bluray_compat=0 / constrained_intra=0 / bframes=8 / b_pyramid=2 / b_adapt=2 / b_bias=0 / direct=3 / weightb=1 / open_gop=0 / weightp=2 / keyint=250 / keyint_min=23 / scenecut=40 / intra_refresh=0 / rc_lookahead=60 / rc=crf / mbtree=1 / crf=17.0 / qcomp=0.60 / qpmin=0 / qpmax=69 / qpstep=4 / vbv_maxrate=50000 / vbv_bufsize=62500 / crf_max=0.0 / nal_hrd=none / ip_ratio=1.40 / aq=1:0.90
Default : Да
Forced : Нет
Аудио #1
Идентификатор : 2
Формат : AC-3
Формат/Информация : Audio Coding 3
Расширение режима : CM (complete main)
Параметр Endianness формата : Big
Идентификатор кодека : A_AC3
Продолжительность : 1 ч. 42 м.
Вид битрейта : Постоянный
Битрейт : 384 Кбит/сек
Каналы : 6 каналов
Расположение каналов : Front: L C R, Side: L R, LFE
Частота : 48,0 КГц
Битовая глубина : 16 бит
Метод сжатия : С потерями
Размер потока : 282 Мбайт (4%)
Язык : Russian
Default : Да
Forced : Нет
Аудио #2
Идентификатор : 3
Формат : AC-3
Формат/Информация : Audio Coding 3
Расширение режима : CM (complete main)
Параметр Endianness формата : Big
Идентификатор кодека : A_AC3
Продолжительность : 1 ч. 42 м.
Вид битрейта : Постоянный
Битрейт : 640 Кбит/сек
Каналы : 6 каналов
Расположение каналов : Front: L C R, Side: L R, LFE
Частота : 48,0 КГц
Битовая глубина : 16 бит
Метод сжатия : С потерями
Размер потока : 470 Мбайт (6%)
Язык : English
Default : Нет
Forced : Нет
Текст #1
Идентификатор : 4
Формат : UTF-8
Идентификатор кодека : S_TEXT/UTF8
Идентификатор кодека/Информация : UTF-8 Plain Text
Заголовок : FORCED
Язык : Russian
Default : Да
Forced : Нет
Текст #2
Идентификатор : 5
Формат : UTF-8
Идентификатор кодека : S_TEXT/UTF8
Идентификатор кодека/Информация : UTF-8 Plain Text
Заголовок : FULL-LENGTH
Язык : Russian
Default : Нет
Forced : Нет
Текст #3
Идентификатор : 6
Формат : UTF-8
Идентификатор кодека : S_TEXT/UTF8
Идентификатор кодека/Информация : UTF-8 Plain Text
Заголовок : FORCED
Язык : Ukrainian
Default : Нет
Forced : Нет
Текст #4
Идентификатор : 7
Формат : UTF-8
Идентификатор кодека : S_TEXT/UTF8
Идентификатор кодека/Информация : UTF-8 Plain Text
Заголовок : FULL-LENGTH
Язык : Ukrainian
Default : Нет
Forced : Нет
Меню
00:00:00.000 : en:00:00:00.000
00:10:26.376 : en:00:10:26.376
00:20:54.628 : en:00:20:54.628
00:31:15.290 : en:00:31:15.290
00:40:58.498 : en:00:40:58.498
00:50:50.714 : en:00:50:50.714
01:00:05.435 : en:01:00:05.435
01:09:51.813 : en:01:09:51.813
01:19:51.245 : en:01:19:51.245
01:31:07.295 : en:01:31:07.295
01:33:57.131 : en:01:33:57.131
--Релиз группы:

Проверено на встроенном плейере ТВ LG 42LW4500
--
Остальные раздачи этого фильма (4)
Благодарности релизеру (48)

Торрент:

Статус:

Размер:

Зарегистрирован   [ 2014-06-08 02:29 ]

проверено

7.74 GB

 
 Мнение о фильме (46)

1, 2, 3  След.






А кто нить его в кинотеатре смотрел ? А то скачал с другого трекера, объем есть, а вылетов нету :) (ну типо "настоящий 3д эфект")
Там вообще вылеты есть ?
 

Не для семейного просмотра. Много крови (просто кровииища) и эротическая сцена.
 

Согласен с братом78 только не кровища, а кетчуп по всему экрану (не реально), что-то пипа игры россамаха. Не пойму зачем назвали 300 спартанцев? Не показали даже как их порубили. Фильм про фекла и кровожадную су..у. И присутствует золотой мальчик-мститель. Качество изображения в норме, 3д глубокое, вылетов 0 (хотя волны и кетчуп можно было-бы сделать с хорошим вылетом, а так все на экране, а не на очках). Буряк.
 

Я смотрел в IMAX . Решил вот пересмотреть еще раз дома. Разница конечно ощутима ! Тут в принципе хорошее глубокое 3D. А в IMAX ты просто ,как бы среди происходящего ,стрелы пролетают буквально мимо твоего уха,а копья и мечи мелькают перед носом . Если бы смотрел сразу дома то 3D вполне приличное. Но с кинотеатром конечно не сравнить.
 

нормально! кровь реально брызжет! зачет!!!!!
 

фильм на один раз. жена не досмотрела, кинула. вылетов нет. 3D очень плохое. глубина только в некоторых моментах
 

Мне понравилось. Кровь аля "компьютерные игры". Сначала кажется, чересчур, потом привыкаешь. А вообще я люблю слэшеры с ведрами крови. Нормально. И еще. НЕ В ВЫЛЕТАХ СЧАСТЬЕ!!! Объем есть, ощутимый.
Забыл добавить, блюра много...
 

фильм супер, конечно не для семьи, но для мужиков/!!!!!!!!!!!!!!!!!!!!!!!!!
 

Качество норм фильм похуже чем прошлая часть.
 

Как всегда на высоте.Спасибо
 

Дубовый фильм. На большого любителя. Кому понравился 1-й фильм, том может смело смотреть. Второй фильм, как минимум, не хуже.
 

предпочитаю кропы смотреть и спасибо за это DAGу. если о фильме, то скоро о нем все забудут.
 

не супер
 

клаааас
 

Фильм не айс , 3D тоже , качал не отсюда но судя по здешним коментам и как выше сказал Panzer Mayer - кровь реально брызжет!
 

Спасибо за раздачу! Нормальный фильм, нормальное 3Д. Да.
 

первый фильм ( 300 спартанцев) я смотреть не смог(по мне пафосная чушь),этот фильм еще более пафосная чушь (особенно прикололи греки - носители демократии,прям нынешние сша )заставил себя смотреть из-за 3д,глубина нормальная, вылетов нет.
 

Спасибо за раздачу! Нормальный фильм!!!! Красиво снят!!!!
 

И все таки не понимаю я фанатов вылетов... Это конечно круто ,не спорю,когда что нибудь этакое мельтешит перед глазами, но смысл 3D именно в трехмерной картинке !Т.е. создание эффекта присутствия зрителя в гуще происходящего . Ну вот в реальной жизни же вам не летит в глаза постоянно что то? Вот и в фильме летит например стрела - есть смысл ее вылета в вашу сторону, а смысл вылета в вашу сторону цветов растущих на лужайке ,например,по которой идут солдаты ??? Вот в реальной жизни ,наблюдай вы их передвижение, копья бойцов в их руках не лезли бы вам в глаза,если бы они на вас не нападали??!! И т. д. ? В данном фильме ,по моему мнению, все что нужно, "вылетает".
 

Поддержу мнение про пафосную чушь.
 

Страница 1 из 3

1, 2, 3  След.