Торренты   
 
 

 

Самара краса 3Д [2014 г., Anamorph SideBySide]

Рейтинг 3D:
2 голосов
7.0
Рейтинг фильма:
3 голосов
7.7
 
Вы должны быть авторизированы,
чтобы ставить оценки


Самара краса 3Д
Год выпуска: 2014
Страна: Россия
Жанр: Разное
Продолжительность: 3 мин
Описание: Мини зарисовка в Самаре. Видео снято на фотоаппарат fujifilm w3 3D.Добавлена стабилизация видео за счёт чего пропало трясение изображения при съёмке,все движения камеры стали очень плавными.
Формат 3D: Anamorph SideBySide
Порядок ракурсов: Параллельная пара
You tube: http://www.youtube.com/watch?v=7ik4dbfPSzs

Скриншоты

Media Info

MediaInfo: General
Unique ID : 168348648403719580577546155723716462494 (0x7EA6C532C2870C1E037BA147C20E879E)
Complete name : D:\Users\1234.1234-ПК\Desktop\Samara krasa 3D.mkv
Format : Matroska
Format version : Version 2
File size : 303 MiB
Duration : 2mn 48s
Overall bit rate : 15.1 Mbps
Writing application : Lavf51.12.1
Writing library : Lavf51.12.1
Video
ID : 1
Format : AVC
Format/Info : Advanced Video Codec
Format profile : Baseline@L4.1
Format settings, CABAC : No
Format settings, ReFrames : 1 frame
Format settings, GOP : M=1, N=12
Codec ID : V_MPEG4/ISO/AVC
Duration : 2mn 48s
Bit rate : 14.7 Mbps
Width : 1 920 pixels
Height : 1 080 pixels
Display aspect ratio : 16:9
Frame rate mode : Constant
Frame rate : 24.000 fps
Color space : YUV
Chroma subsampling : 4:2:0
Bit depth : 8 bits
Scan type : Progressive
Bits/(Pixel*Frame) : 0.295
Stream size : 294 MiB (97%)
Default : Yes
Forced : No
Audio
ID : 2
Format : AC-3
Format/Info : Audio Coding 3
Mode extension : CM (complete main)
Format settings, Endianness : Big
Codec ID : A_AC3
Duration : 2mn 48s
Bit rate mode : Constant
Bit rate : 128 Kbps
Channel(s) : 2 channels
Channel positions : Front: L R
Sampling rate : 44.1 KHz
Bit depth : 16 bits
Compression mode : Lossy
Stream size : 2.56 MiB (1%)
Default
Благодарности релизеру (4)

Торрент:

Статус:

Размер:

Зарегистрирован   [ 2014-06-08 10:03 ]

проверено

303 MB

 
 Мнение о фильме (1)





Миледи, а Вы цветность/насыщенность усиливали при монтаже, или это так Фуджик снимает?