Торренты   
 
 


Ларго Винч 2: Заговор в Бирме 3D / Largo Winch 2 3D (Жером Салль) [2011 г., триллер, приключения, BDRip 1080p] Half OverUnder

Рейтинг 3D:
Пока никто не голосовал
Рейтинг фильма:
Пока никто не голосовал
 
Вы должны быть авторизированы,
чтобы ставить оценки


Ларго Винч 2: Заговор в Бирме 3D / Largo Winch 2 3D
Год выпуска: 2011
Страна: Германия, Франция, Бельгия,
Жанр: триллер, приключения
Продолжительность: 01:58:18
Перевод: Дубляж, Лицензия
Режиссер: Жером Салль
Продюссер: Натали Гастальдо, Вирджиния Брейдель, Чу Чен Оун
Сценарий: Жан Ван Хамме, Жюльен Рапно, Жером Салль
Бюджет: $41 000 000
Премьера в мире: 16 февраля 2011

В ролях: Томер Сислей, Шэрон Стоун, Ульрих Тукур, Напакпапха Накпраситте, Оливье Бартелеми, Николас Воде, Клеменс Шик, Дмитрий Назаров, Лоран Терзиефф
Роли дублировали: Виктор Раков, Любовь Германова, Константин Карасик, Вероника Саркисова, Денис Беспалый
Описание: После убийства приёмного отца Ларго Винч становится президентом группы компаний «W Group». Но роль управленца огромной корпорации не подходит Ларго. Он объявляет о продаже «W Group» и создании гуманитарного фонда, который возглавит старый друг его отца. В день, когда договор подписан, Ларго обвиняют в преступлениях против человечества и финансировании режима бирманского генерала Мина.
Доп. информация: Формат 3D: Half OverUnder / Вертикальная анаморфная стереопара
Качество: BDRip 1080p
Формат: MKV
Видео кодек: H.264
Аудио кодек: AC3
Видео: x264, 1920 x 1080, (16:9) 23.976 fps, 7826 Кбит/с, (0.157 bit/pixel)
Аудио#1: Русский / AC3 / 48 KHz / 6 ch / 448 Kbps

Скриншоты

MediaInfo

Общее
Уникальный идентификатор : 226580458308119863392220583310735171697 (0xAA75CF1724305652B60A1C177D3FE071)
Полное имя : D:Largo.Winch.Tome.2.3D.(2011).(HOU).mkv
Формат : Matroska
Версия формата : Version 4 / Version 2
Размер файла : 6,97 Гбайт
Продолжительность : 1 ч. 58 м.
Общий поток : 8442 Кбит/сек
Название фильма : Ларго Винч 2: Заговор в Бирме 3D / Largo Winch Tome 2 3D (2011) BDRip 1080р | 3D-Video | HOU | Лицензия
Дата кодирования : UTC 2014-06-08 09:48:31
Программа кодирования : mkvmerge v6.2.0 ('Promised Land') built on Apr 28 2013 12:22:01
Библиотека кодирования : libebml v1.3.0 + libmatroska v1.4.0
Видео
Идентификатор : 1
Формат : AVC
Формат/Информация : Advanced Video Codec
Профиль формата : High@L4.1
Параметр CABAC формата : Да
Параметр ReFrames формата : 2 кадра
Идентификатор кодека : V_MPEG4/ISO/AVC
Продолжительность : 1 ч. 58 м.
Битрейт : 7826 Кбит/сек
Ширина : 1920 пикселей
Высота : 1080 пикселей
Соотношение сторон : 16:9
Режим частоты кадров : Постоянный
Частота кадров : 23,976 кадра/сек
Цветовое пространство : YUV
Субдискретизация насыщенности : 4:2:0
Битовая глубина : 8 бит
Тип развёртки : Прогрессивная
Бит/(Пиксели*Кадры) : 0.157
Размер потока : 6,47 Гбайт (93%)
Заголовок : Largo Winch Tome 2 3D (2011) BDRip 1080р (HOU).mkv
Библиотека кодирования : x264 core
Default : Да
Forced : Нет
Основные цвета : BT.709
Характеристики трансфера : BT.709
Коэффициенты матрицы : BT.709
Аудио
Идентификатор : 2
Формат : AC-3
Формат/Информация : Audio Coding 3
Расширение режима : CM (complete main)
Параметр Endianness формата : Big
Идентификатор кодека : A_AC3
Продолжительность : 1 ч. 58 м.
Вид битрейта : Постоянный
Битрейт : 448 Кбит/сек
Каналы : 6 каналов
Расположение каналов : Front: L C R, Side: L R, LFE
Частота : 48,0 КГц
Битовая глубина : 16 бит
Метод сжатия : С потерями
Размер потока : 379 Мбайт (5%)
Заголовок : Dub (Лицензия BD-Rus)
Язык : Russian
Default : Да
Forced : Нет
Меню
00:00:00.000 : en:(01)00:00:00:000
00:13:26.388 : en:(02)00:13:26:388
00:32:06.798 : en:(03)00:32:06:798
00:48:13.681 : en:(04)00:48:13:681
01:03:28.012 : en:(05)01:03:28:012
01:17:02.451 : en:(06)01:17:02:451
01:27:50.974 : en:(07)01:27:50:974
01:40:22.056 : en:(08)01:40:22:056
 Мнение о фильме (1)





Уже не раз закрывалось на серьёзных трекерах, ввиду отсутствия 3Д (фейк):

3Д-анимация