Торренты   
 
 

 

300 спартанцев: Расцвет империи / 300: Rise of an Empire (Ноам Мурро) [ BDRip Anamorph SideBySide]

Рейтинг 3D:
107 голосов
7.9
Рейтинг фильма:
106 голосов
7.4
 
Вы должны быть авторизированы,
чтобы ставить оценки


300 спартанцев: Расцвет империи / 300: Rise of an Empire
Страна: США
Жанр: Фэнтези, Боевик, Драма, Военный
Продолжительность: 1:42:36
Режиссер: Ноам Мурро
В ролях: Салливан Степлтон, Ева Грин, Джек О`Коннелл, Каллэн Мулвей, Ханс Мэтисон, Родриго Санторо, Лина Хиди, Дэвид Уэнэм, Эндрю Тирнан, Эндрю Плевин, Игал Наор, Питер Менса
Описание: После победы над царем Леонидом персидская армия во главе с Ксерксом движется на юг. На её пути оказывается флот Афин под руководством адмирала Фемистокла. Силы противников не равны, и Фемистокл вынужден вступить в союз с заклятым врагом афинского государства Спартой. Только объединившись у враждующих полисов-государств есть шанс что-то противопоставить могущественному Ксерксу.
Релиз группы:
Формат 3D: Anamorph SideBySide BDRip
Видео: AVC, High@L4.0, 1920х1080, 23,976 кадра/сек, 8005 Кбит/сек
Аудио: Rus, AC-3, 6 каналов, 348 Кбит/сек, 48,0 КГц iTunes
Аудио: Ukr, AC-3, 2 канала, 192 Кбит/сек, 48,0 КГц iTunes
Аудио: Eng, AC-3, 6 каналов, 640 Кбит/сек, 48,0 КГц
Субтитры: Rus ANSI
Субтитры: Rus UTF-8
Субтитры: Ukr ANSI
Субтитры: Ukr UTF-8

Скриншоты




Media Info

Общее
Уникальный идентификатор : 209296092695798784625798721957180700646 (0x9D74F6124AAA1999865A6DDD8F3377E6)
Полное имя : E:\STEREO SBS\300_Rise Of An Empire_HalfSBS_Rip by Dag13\300_Rise Of An Empire_HalfSBS_Rip by Dag13.mkv
Формат : Matroska
Версия формата : Version 2
Размер файла : 6,74 Гбайт
Продолжительность : 1 ч. 42 м.
Общий поток : 9408 Кбит/сек
Дата кодирования : UTC 2014-06-12 05:20:38
Программа кодирования : mkvmerge v3.4.0 ('Rapunzel') сборка от May 15 2010 09:38:20
Библиотека кодирования : libebml v0.8.0 + libmatroska v0.9.0
Видео
Идентификатор : 1
Формат : AVC
Формат/Информация : Advanced Video Codec
Профиль формата : High@L4.0
Параметр CABAC формата : Да
Параметр ReFrames формата : 4 кадра
Идентификатор кодека : V_MPEG4/ISO/AVC
Продолжительность : 1 ч. 42 м.
Битрейт : 8005 Кбит/сек
Ширина : 1920 пикселей
Высота : 1080 пикселей
Соотношение сторон : 16:9
Режим частоты кадров : Постоянный
Частота кадров : 23,976 кадра/сек
Цветовое пространство : YUV
Субдискретизация насыщенности : 4:2:0
Битовая глубина : 8 бит
Тип развёртки : Прогрессивная
Бит/(Пиксели*Кадры) : 0.161
Размер потока : 5,74 Гбайт (85%)
Заголовок : Rip by Dag13
Библиотека кодирования : x264 core 116 r2074 2641b9e
Настройки программы : cabac=1 / ref=4 / deblock=1:-3:-3 / analyse=0x3:0x113 / me=umh / subme=9 / psy=1 / psy_rd=1.00:0.00 / mixed_ref=1 / me_range=16 / chroma_me=1 / trellis=2 / 8x8dct=1 / cqm=0 / deadzone=21,11 / fast_pskip=1 / chroma_qp_offset=-2 / threads=9 / sliced_threads=0 / nr=0 / decimate=1 / interlaced=0 / bluray_compat=0 / constrained_intra=0 / bframes=6 / b_pyramid=2 / b_adapt=2 / b_bias=0 / direct=3 / weightb=1 / open_gop=0 / weightp=2 / keyint=250 / keyint_min=23 / scenecut=40 / intra_refresh=0 / rc_lookahead=60 / rc=crf / mbtree=1 / crf=18.0 / qcomp=0.60 / qpmin=1 / qpmax=69 / qpstep=4 / ip_ratio=1.40 / aq=1:1.00
Язык : English
Default : Нет
Forced : Нет
Аудио #1
Идентификатор : 2
Формат : AC-3
Формат/Информация : Audio Coding 3
Расширение режима : CM (complete main)
Параметр Endianness формата : Big
Идентификатор кодека : A_AC3
Продолжительность : 1 ч. 42 м.
Вид битрейта : Постоянный
Битрейт : 384 Кбит/сек
Каналы : 6 каналов
Расположение каналов : Front: L C R, Side: L R, LFE
Частота : 48,0 КГц
Битовая глубина : 16 бит
Метод сжатия : С потерями
Размер потока : 282 Мбайт (4%)
Язык : Russian
Default : Да
Forced : Нет
Аудио #2
Идентификатор : 3
Формат : AC-3
Формат/Информация : Audio Coding 3
Расширение режима : CM (complete main)
Параметр Endianness формата : Big
Идентификатор кодека : A_AC3
Продолжительность : 1 ч. 42 м.
Вид битрейта : Постоянный
Битрейт : 192 Кбит/сек
Каналы : 2 канала
Расположение каналов : Front: L R
Частота : 48,0 КГц
Битовая глубина : 16 бит
Метод сжатия : С потерями
Размер потока : 141 Мбайт (2%)
Язык : Ukrainian
Default : Нет
Forced : Нет
Аудио #3
Идентификатор : 4
Формат : AC-3
Формат/Информация : Audio Coding 3
Расширение режима : CM (complete main)
Параметр Endianness формата : Big
Идентификатор кодека : A_AC3
Продолжительность : 1 ч. 42 м.
Вид битрейта : Постоянный
Битрейт : 640 Кбит/сек
Каналы : 6 каналов
Расположение каналов : Front: L C R, Side: L R, LFE
Частота : 48,0 КГц
Битовая глубина : 16 бит
Метод сжатия : С потерями
Размер потока : 470 Мбайт (7%)
Язык : English
Default : Нет
Forced : Нет
Остальные раздачи этого фильма (4)
Благодарности релизеру (12)

Торрент:

Статус:

Размер:

Зарегистрирован   [ 2014-06-12 09:54 ]

проверено

6.74 GB

 
 Мнение о фильме (46)

1, 2, 3  След.






А кто нить его в кинотеатре смотрел ? А то скачал с другого трекера, объем есть, а вылетов нету :) (ну типо "настоящий 3д эфект")
Там вообще вылеты есть ?
 

Не для семейного просмотра. Много крови (просто кровииища) и эротическая сцена.
 

Согласен с братом78 только не кровища, а кетчуп по всему экрану (не реально), что-то пипа игры россамаха. Не пойму зачем назвали 300 спартанцев? Не показали даже как их порубили. Фильм про фекла и кровожадную су..у. И присутствует золотой мальчик-мститель. Качество изображения в норме, 3д глубокое, вылетов 0 (хотя волны и кетчуп можно было-бы сделать с хорошим вылетом, а так все на экране, а не на очках). Буряк.
 

Я смотрел в IMAX . Решил вот пересмотреть еще раз дома. Разница конечно ощутима ! Тут в принципе хорошее глубокое 3D. А в IMAX ты просто ,как бы среди происходящего ,стрелы пролетают буквально мимо твоего уха,а копья и мечи мелькают перед носом . Если бы смотрел сразу дома то 3D вполне приличное. Но с кинотеатром конечно не сравнить.
 

нормально! кровь реально брызжет! зачет!!!!!
 

фильм на один раз. жена не досмотрела, кинула. вылетов нет. 3D очень плохое. глубина только в некоторых моментах
 

Мне понравилось. Кровь аля "компьютерные игры". Сначала кажется, чересчур, потом привыкаешь. А вообще я люблю слэшеры с ведрами крови. Нормально. И еще. НЕ В ВЫЛЕТАХ СЧАСТЬЕ!!! Объем есть, ощутимый.
Забыл добавить, блюра много...
 

фильм супер, конечно не для семьи, но для мужиков/!!!!!!!!!!!!!!!!!!!!!!!!!
 

Качество норм фильм похуже чем прошлая часть.
 

Как всегда на высоте.Спасибо
 

Дубовый фильм. На большого любителя. Кому понравился 1-й фильм, том может смело смотреть. Второй фильм, как минимум, не хуже.
 

предпочитаю кропы смотреть и спасибо за это DAGу. если о фильме, то скоро о нем все забудут.
 

не супер
 

клаааас
 

Фильм не айс , 3D тоже , качал не отсюда но судя по здешним коментам и как выше сказал Panzer Mayer - кровь реально брызжет!
 

Спасибо за раздачу! Нормальный фильм, нормальное 3Д. Да.
 

первый фильм ( 300 спартанцев) я смотреть не смог(по мне пафосная чушь),этот фильм еще более пафосная чушь (особенно прикололи греки - носители демократии,прям нынешние сша )заставил себя смотреть из-за 3д,глубина нормальная, вылетов нет.
 

Спасибо за раздачу! Нормальный фильм!!!! Красиво снят!!!!
 

И все таки не понимаю я фанатов вылетов... Это конечно круто ,не спорю,когда что нибудь этакое мельтешит перед глазами, но смысл 3D именно в трехмерной картинке !Т.е. создание эффекта присутствия зрителя в гуще происходящего . Ну вот в реальной жизни же вам не летит в глаза постоянно что то? Вот и в фильме летит например стрела - есть смысл ее вылета в вашу сторону, а смысл вылета в вашу сторону цветов растущих на лужайке ,например,по которой идут солдаты ??? Вот в реальной жизни ,наблюдай вы их передвижение, копья бойцов в их руках не лезли бы вам в глаза,если бы они на вас не нападали??!! И т. д. ? В данном фильме ,по моему мнению, все что нужно, "вылетает".
 

Поддержу мнение про пафосную чушь.
 

Страница 1 из 3

1, 2, 3  След.