Торренты   
 
 


nobody.one - Leerg 3D [2014 г., Anamorph SideBySide]

Рейтинг 3D:
2 голосов
6.1
Рейтинг фильма:
2 голосов
5.2
 
Вы должны быть авторизированы,
чтобы ставить оценки


nobody.one - Leerg 3D
Год выпуска: 2014
Страна: Россия
Жанр: Концертный клип
Продолжительность: 00:03:52
Описание: Погрузитесь в атмосферу концерта группы nobody.one!
Потрясающий эффект присутствия и удивительная музыка завораживают и захватывают дух!
Формат 3D: Anamorph SideBySide
Порядок ракурсов: Параллельная пара
Видео: H.264, 1920x1080, 25 Мбит/сек, 25FPS
Аудио: AAC, 384 Кбит/сек, 48,0 КГц, стерео

Предпросмотр на YouTube

Прежде чем скачать, вы можете посмотреть фильм на YouTube.

Скриншоты

Media Info

Общее
Полное имя : G:\Раздачи\torrents3d.ru\nobody.one - Leerg 3D\nobody.one - Leerg 3D.mp4
Формат : MPEG-4
Профиль формата : JVT
Идентификатор кодека : avc1
Размер файла : 693 Мбайт
Продолжительность : 3 м. 52 с.
Режим общего битрейта : Переменный
Общий поток : 25,0 Мбит/сек
Дата кодирования : UTC 2014-06-08 07:07:42
Дата пометки : UTC 2014-06-08 07:07:42
Видео
Идентификатор : 1
Формат : AVC
Формат/Информация : Advanced Video Codec
Профиль формата : High@L4.1
Параметр CABAC формата : Да
Параметр ReFrames формата : 2 кадра
Параметр GOP формата : N=1
Идентификатор кодека : avc1
Идентификатор кодека/Информация : Advanced Video Coding
Продолжительность : 3 м. 52 с.
Вид битрейта : Переменный
Битрейт : 24,6 Мбит/сек
Максимальный битрейт : 27,0 Мбит/сек
Ширина : 1920 пикселей
Высота : 1080 пикселей
Соотношение сторон : 16:9
Режим частоты кадров : Постоянный
Частота кадров : 25,000 кадров/сек
Цветовое пространство : YUV
Субдискретизация насыщенности : 4:2:0
Битовая глубина : 8 бит
Тип развёртки : Прогрессивная
Бит/(Пиксели*Кадры) : 0.475
Размер потока : 682 Мбайт (98%)
Язык : English
Дата кодирования : UTC 2014-06-08 07:07:42
Дата пометки : UTC 2014-06-08 07:07:42
Аудио
Идентификатор : 2
Формат : AAC
Формат/Информация : Advanced Audio Codec
Профиль формата : LC
Идентификатор кодека : 40
Продолжительность : 3 м. 52 с.
Продолжительность оригинала : 3 м. 52 с.
Вид битрейта : Постоянный
Битрейт : 384 Кбит/сек
Каналы : 2 канала
Расположение каналов : Front: L R
Частота : 48,0 КГц
Метод сжатия : С потерями
Размер потока : 10,6 Мбайт (2%)
Размер потока оригинала : 10,6 Мбайт (2%)
Язык : English
Дата кодирования : UTC 2014-06-08 07:07:42
Дата пометки : UTC 2014-06-08 07:07:42
Благодарности релизеру (4)

Торрент:

Статус:

Размер:

Зарегистрирован   [ 2014-06-23 21:51 ]

проверено

693 MB

 
Андрей Соболь Профиль 23-Июн-2014 21:51