Торренты   
 
 


IMAX Замок с привидениями 3D / Haunted Castle [2001 г., анимация / ужасы / триллер, SideBySide]

Рейтинг 3D:
Пока никто не голосовал
Рейтинг фильма:
Пока никто не голосовал
 
Вы должны быть авторизированы,
чтобы ставить оценки



IMAX Замок с привидениями 3D / Haunted Castle
Год выпуска: 2001
Страна: США
Жанр: компьютерная анимация / ужасы / триллер
Продолжительность: 00:36:40
Описание: Мать Джонни - стареющая, когда-то очень популярная рок-певица, доживающая свои последние годы в старом, овеянном тайной замке. Но вот мать умирает, и Джонни, молодой, самобытный, подающий надежды музыкант - отправляется в замок матери. Такова была ее последняя воля. Если не сказать прихоть - сын не видел мать с трехлетнего возраста. Джонни обнаруживает, что замок не столь безмолвен, каким кажется. Постепенно замок начинает оживать, наполняться духами. Джонни узнает Мефисто, прихвостня мистера Ди, хранителя злых сил замка. Мефисто докладывает Джонни: Мистер Ди давно ждет его, чтобы пролить свет на многие вопросы. Ди делает Джонни интересное предложение - точно такое же что, более двадцати лет назад, приняла его мать. Продай свою душу в обмен на умопомрачительную славу и богатство, говорит мистер Ди. Но Джонни не спешит с ответом. И тогда Ди предлагает нашему герою отправиться на экскурсию по замку, экскурсию, которая решит все...
Формат 3d: SideBySide
Порядок ракурсов: Перекрестная пара

MediaInfo

Код:
General
Format                           : AVI
Format/Info                      : Audio Video Interleave
File size                        : 859 MiB
Duration                         : 36mn 40s
Overal bit rate                  : 3277 Kbps
Writing library                  : VirtualDub build 30009/release
Video
Format                           : AVC
Format/Info                      : Advanced Video Codec
Format profile                   : High@L3.1
Format settings, CABAC           : Yes
Format settings, ReFrames        : 1 frame
Codec ID                         : AVC1
Duration                         : 36mn 40s
Bit rate                         : 2881 Kbps
Width                            : 1408 pixels
Height                           : 464 pixels
Display aspect ratio             : 3.034
Frame rate                       : 29.970 fps
Resolution                       : 24 bits
Colorimetry                      : 4:2:0
Scan type                        : Progressive
Bits/(Pixel*Frame)               : 0.147
Stream size                      : 756 MiB
Writing library                  : x264 core 68 r1195bm 5d75a9b
Encoding settings                : cabac=1 / ref=1 / deblock=1:0:0 / analyse=0x3:0x13 / me=umh / subme=7 / psy_rd=0.0:0.0 / mixed_ref=0 / me_range=16 / chroma_me=1 / trellis=1 / 8x8dct=1 / cqm=0 / deadzone=21,11 / chroma_qp_offset=0 / threads=6 / thread_queue=6 / nr=0 / decimate=1 / mbaff=0 / bframes=0 / keyint=250 / keyint_min=25 / scenecut=40 / rc=cqp / qp=24 / ip_ratio=1.40 / aq=0
Audio
Format                           : AC-3
Format/Info                      : Audio Coding 3
Codec ID                         : 2000
Duration                         : 36mn 40s
Bit rate mode                    : Constant
Bit rate                         : 384 Kbps
Channel(s)                       : 6 channels
Channel positions                : Front: L C R, Rear: L R, LFE
Sampling rate                    : 48.0 KHz
Stream size                      : 101 MiB

Скриншоты






Благодарности релизеру (2)

Торрент:

Статус:

Размер:

Зарегистрирован   [ 2010-09-12 21:06 ]

проверено

859 MB