Торренты   
 
 


Лес 3Д [2014 г., Anamorph SideBySide]

Рейтинг 3D:
4 голосов
5.5
Рейтинг фильма:
4 голосов
5.0
 
Вы должны быть авторизированы,
чтобы ставить оценки


Лес 3Д
Год выпуска: 2014
Страна: Россия
Жанр: Разное
Продолжительность: 00:05:53
Описание: Прогулка по лесу от первого лица в 3Д
Формат 3D: Anamorph SideBySide
Порядок ракурсов: Параллельная пара

Скриншоты






Media Info

General
Unique ID : 168348648403719580577546155723716462494 (0x7EA6C532C2870C1E037BA147C20E879E)
Complete name : D:\Users\1234.1234-ПК\Desktop\Woodland 3D.mkv
Format : Matroska
Format version : Version 2
File size : 464 MiB
Duration : 5mn 53s
Overall bit rate : 11.0 Mbps
Writing application : Lavf51.12.1
Writing library : Lavf51.12.1
Video
ID : 1
Format : AVC
Format/Info : Advanced Video Codec
Format profile : Baseline@L4.0
Format settings, CABAC : No
Format settings, ReFrames : 1 frame
Format settings, GOP : M=1, N=12
Codec ID : V_MPEG4/ISO/AVC
Duration : 5mn 53s
Bit rate : 10.7 Mbps
Width : 1 920 pixels
Height : 1 080 pixels
Display aspect ratio : 16:9
Frame rate mode : Constant
Frame rate : 24.000 fps
Color space : YUV
Chroma subsampling : 4:2:0
Bit depth : 8 bits
Scan type : Progressive
Bits/(Pixel*Frame) : 0.214
Stream size : 449 MiB (97%)
Default : Yes
Forced : No
Audio
ID : 2
Format : AC-3
Format/Info : Audio Coding 3
Mode extension : CM (complete main)
Format settings, Endianness : Big
Codec ID : A_AC3
Duration : 5mn 53s
Bit rate mode : Constant
Bit rate : 128 Kbps
Channel(s) : 2 channels
Channel positions : Front: L R
Sampling rate : 44.1 KHz
Bit depth : 16 bits
Compression mode : Lossy
Stream size : 5.39 MiB (1%)
Default : Yes
Forced : No
Благодарности релизеру (1)

Торрент:

Статус:

Размер:

Зарегистрирован   [ 2014-06-24 18:15 ]

проверено

464 MB

 
 Мнение о фильме (6)





Миледи, Спрашивал в Вашем предыдущем релизе про цвет/насыщенность. Может, в этом ответите?
 

olivanos Да использовала фильтр de block + увеличение цветности 25% + 5% яркость
 

Спасибо, выкладывайте еще.
 

olivanos, Сначала стэдикам приобрету для более плавных "полётов" камеры,а уж потом зажгём!!!)))
 

Миледи, очень правильное решение насчет стедикама ( хотя для Вашей камеры лучше подойдет более простое устройство, под названием "flycam", без руки и жилета, и стоит дешевле). Про насыщенность и цветность спрашивал, потому что у меня на телевизоре была видна явная перенасыщенность цветом, особенно в кадрах на пляже. Вообще же W3 видео лучше всегда снимать с упора, штатива или монопода.
 

К стати фото в жёлто синем анаглифе намного лучше чем красно циановый смотрятся,по крайней мере цвета не убивает.