Торренты   
 
 

 

Рио 2 в 3Д / Rio 2 3D (Карлос Салдана / Car) [2014, Мультфильм, Комедия, Приключения, Семейный, BDrip, 1080p]Full OverUnder / Вертикальная стереопара

Рейтинг 3D:
35 голосов
7.6
Рейтинг фильма:
35 голосов
6.0
 
Вы должны быть авторизированы,
чтобы ставить оценки


Рио 2 / Rio 2
Год выпуска: 2014
Страна: США (20th Century Fox Animation, Blue Sky Studios)
Жанр: Мультфильм, Комедия, Приключения, Семейный
Продолжительность: 1:41:10
Перевод: Профессиональный дублированный (лицензия)
Русские субтитры: нет
Режиссер : Карлос Салдана / Carlos Saldanha
В ролях: Энн Хэтэуэй, Джесси Айзенберг, Родриго Санторо, Джейми Фокс, Лесли Манн, Кристин Ченоуэт, Джейк Т. Остин, Джон Легуизамо, Амандла Стенберг, Энди Гарсиа
Описание: Голубчик, Жемчужинка и их трое детей живут счастливой жизнью в волшебном городе Рио-де-Жанейро. Когда Жемчужинка решает, что их детям нужно научиться жить как настоящим птицам, она настаивает на авантюрной поездке в дебри реки Амазонки. Там, пытаясь вписаться в новое окружение, Голубчик начинает беспокоиться, что может потерять Жемчужинку и детей, идущих на зов дикой природы.
Сэмпл: http://sendfile.su/998006
Качество: BDrip
Контейнер: MKV
Формат 3D: OverUnder / Вертикальная стереопара
Порядок ракурсов: левый ракурс первый
Видео кодек: x264
Аудио кодек: AC3
Видео: AVC / High@L5.0 / 23,976 fps / 1920х1600 / 14,8 Мбит/сек
Аудио: Русский / DTS / 48 KHz / 5.1 ch / 768 Кбит/сек (лицензия)
Аудио 2: Английский / AC3 / 48 KHz / 5.1 ch / 640 Кбит/сек
Релиз группы: ВНИМАНИЕ ! На встроенных ТВ-плеерах работать не будет!!!
ТВ Samsung в названии которого есть надпись Ultra HD воспроизводят полные стереопары
Железные плееры на которых воспроизводятся полные стереопары:Popcorn C-200 , Dune HD Smart D1 , Dune HD DUO , Dune HD Smart H1 , Dune HD Smart B1 , Dune HD Max , Dune HD TV-303D , Dune HD Base 3D

05.07.2014 Релиз обновлен - русская звуковая дорожка "чистый звук" заменена на лицензию . Желающие скачайте заново торрент-файл

MediaInfo

Общее
Уникальный идентификатор : 235830795058289741812039006532516946771 (0xB16B5BE77FAFA3FBB6337E7079E7A353)
Полное имя : E:\закачки\Rio 2.Rip by SeRoGa00.mkv
Формат : Matroska
Версия формата : Version 2
Размер файла : 11,7 Гбайт
Продолжительность : 1 ч. 41 м.
Общий поток : 16,6 Мбит/сек
Дата кодирования : UTC 2014-07-05 15:14:23
Программа кодирования : mkvmerge v3.4.0 ('Rapunzel') сборка от May 15 2010 09:38:20
Библиотека кодирования : libebml v0.8.0 + libmatroska v0.9.0
Видео
Идентификатор : 1
Формат : AVC
Формат/Информация : Advanced Video Codec
Профиль формата : High@L5.0
Параметр CABAC формата : Да
Параметр ReFrames формата : 4 кадра
Идентификатор кодека : V_MPEG4/ISO/AVC
Продолжительность : 1 ч. 41 м.
Битрейт : 14,8 Мбит/сек
Ширина : 1920 пикселей
Высота : 1600 пикселей
Соотношение сторон : 1,200
Частота кадров : 23,976 кадра/сек
Цветовое пространство : YUV
Субдискретизация насыщенности : 4:2:0
Битовая глубина : 8 бит
Тип развёртки : Прогрессивная
Бит/(Пиксели*Кадры) : 0.202
Размер потока : 10,5 Гбайт (90%)
Заголовок : Rip by SeRoGa00
Библиотека кодирования : x264 core 138 r2356 a1d3d17
Настройки программы : cabac=1 / ref=4 / deblock=1:-3:-3 / analyse=0x3:0x113 / me=umh / subme=9 / psy=1 / psy_rd=1.00:0.15 / mixed_ref=1 / me_range=24 / chroma_me=1 / trellis=2 / 8x8dct=1 / cqm=0 / deadzone=21,11 / fast_pskip=1 / chroma_qp_offset=-3 / threads=9 / lookahead_threads=1 / sliced_threads=0 / nr=0 / decimate=1 / interlaced=0 / bluray_compat=0 / constrained_intra=0 / bframes=8 / b_pyramid=2 / b_adapt=2 / b_bias=0 / direct=3 / weightb=1 / open_gop=0 / weightp=2 / keyint=250 / keyint_min=23 / scenecut=40 / intra_refresh=0 / rc_lookahead=60 / rc=crf / mbtree=1 / crf=18.0 / qcomp=0.60 / qpmin=10 / qpmax=69 / qpstep=4 / vbv_maxrate=40000 / vbv_bufsize=40000 / crf_max=0.0 / nal_hrd=none / ip_ratio=1.40 / aq=1:1.00
Язык : English
Аудио #1
Идентификатор : 2
Формат : DTS
Формат/Информация : Digital Theater Systems
Идентификатор кодека : A_DTS
Продолжительность : 1 ч. 41 м.
Вид битрейта : Постоянный
Битрейт : 768 Кбит/сек
Каналы : 6 каналов
Расположение каналов : Front: L C R, Side: L R, LFE
Частота : 48,0 КГц
Битовая глубина : 24 бит
Метод сжатия : С потерями
Размер потока : 546 Мбайт (5%)
Язык : Russian
Аудио #2
Идентификатор : 3
Формат : AC-3
Формат/Информация : Audio Coding 3
Расширение режима : CM (complete main)
Идентификатор кодека : A_AC3
Продолжительность : 1 ч. 41 м.
Вид битрейта : Постоянный
Битрейт : 640 Кбит/сек
Каналы : 6 каналов
Расположение каналов : Front: L C R, Side: L R, LFE
Частота : 48,0 КГц
Битовая глубина : 16 бит
Метод сжатия : С потерями
Размер потока : 463 Мбайт (4%)
Язык : English

Скриншоты


Остальные раздачи этого фильма (3)
Благодарности релизеру (16)

Торрент:

Статус:

Размер:

Зарегистрирован   [ 2014-07-05 19:41 ]

проверено

11.71 GB

 
 Мнение о фильме (24)

1, 2  След.






Эх...А звук то уже iTunes есть...но все равно спасибо...Ash61 отдельным файлом выложил...прикрутим...и ему спасибо за дорожку
 

Ash61 отдельным файлом выложил...прикрутим..
А где выложил то?
 

Русская дорога с BD 3D CEE (AC3), подходит для 3Д релизов данного мульта - https://cloud.mail.ru/public/1b601b1d7b03/Rio2%2820...Rus.BD3D.CEE.ac3
 

ash61,
Здравствуйте.
Можно получить дорогу dts с BD3D?
 

Мульт скучен. 1-я часть была более динамичней. Качество 3D - ни глубины, ни вылетов. (думал, что уже глаза привыкли, включил Аватара - ан нет с глазами всё в порядке :))
ПЫ.СЫ. Ребенок так же с просмотра свалил на половине.
 

Присоединяюсь к просьбе DeD36RUS. Естественно, имеется в виду русская дорога :).
 

Русская дорога с BD 3D CEE (DTS - 768 kbps) - https://cloud.mail.ru/public/2be7da89c0bc/Rio2%2820...Rus.BD3D.CEE.dts
 

Большое спасибо, ash61, как за звук, так и за всё остальное!
 

ash61,можно на 300 спартанцев ac3 лицензионную дорожку?
 

Русская дорога "300 спартанцев: Расцвет империи" с BD CEE для 3Д-релизов - https://cloud.mail.ru/public/9a01192424f6/300.RiseO...e-Rus.BD.CEE.ac3
 

Спасибо большое! Отличный красочный мультик для всей семьи!
 

ash61, Спасибо
 

ash61,БОЛЬШОЕ Спасибо)))
 

Какое же это дерьмище по сравнению с первой частью! Мульт абсолютно тупой. Не смог досмотреть, а я его так ждал. Настроение было испорчено.
 

Красивый отличный мульт. Качал релиз от Dag13 без полос, 3Д объём вылеты, всё в норме. Дети посмотрели на одном дыхании.
 

Спасибо!
 

Ребята станьте на раздачу!!!
 

ash61,
Блин! Дважды скачал этот релиз и оба раза не смогли с женой смотреть-почему-то поменяны местами передний и задний планы... Глаза аж вылезают на 3-й минуте! Пробовал подстройки, ничего не помогает. Другие фильмы и мульты идут ОК! TV - LG42:(
Что делать подскажи, пожалуйста.
 

nick_57, как и в любом моём релизе, здесь левый ракурс первый.
Пробуйте поменять местами ракурсы на ТВ или для пробы переверните очки.
Одно скажу точно - здесь проблема у вас.
 

ash61, спасибо за консультацию. То, что проблема у меня - это понятно, в В Ваших релизах не сомневаюсь-всегда было СУПЕР! Сейчас докачаю и попробую по Вашим рекомендациям.
 

Страница 1 из 2

1, 2  След.