Торренты   
 
 


Помпеи / Pompeii (Пол У. С. Андерсон) [2014 г., Half OverUnder / Вертикальная анаморфная стереопара]

Рейтинг 3D:
Пока никто не голосовал
Рейтинг фильма:
Пока никто не голосовал
 
Вы должны быть авторизированы,
чтобы ставить оценки


Помпеи / Pompeii
Год выпуска: 2014
Страна: США, Германия, Канада / Constantin Film Produktion GmbH, Don Carmody Productions, FilmDistrict, Impact Pictures
Жанр: Приключения, Мелодрама, Боевик
Продолжительность: 01:32:34
Перевод: Профессиональный (полное дублирование)
Режиссер: Пол У. С. Андерсон
В ролях: Саша Ройз, Кэрри-Энн Мосс, Адевале Акинойе-Агбаже, Эмили Браунинг, Джессика Лукас, Кифер Сазерленд, Кит Харингтон, Джо Пинг, Джаред Харрис, Карри Грэм
Описание: История любви раба Майло и благородной Кассии, обрученной с римским сенатором, на фоне извержения Везувия, которое навсегда стерло с лица земли древнеримский город Помпеи...
Формат 3D: Half OverUnder / Вертикальная анаморфная стереопара

Аудио

#1 - Русский / AC3 / 48 KHz / 5.1 ch / 640 Kbps (Дубляж - BD Rus) (corrected by Ash61)
#2 - Английский / AC3 / 48 KHz / 5.1 ch / 640 Kbps (Original - BD 3D)

Субтитры

#1 - Русские Полные (Notabenoid)
#2 - English Full
#3 - English SDH
#4 - English Comments (of Paul Anderson & producer Jeremy Bolt)

Скриншоты

Media Info

General
Unique ID : 210231236912184035346274127170819029285 (0x9E29103DB351129FB1D0AEF284FB7925)
Complete name : E:Pompeii(2014)3D-halfOU(Ash61)Pompeii(2014)3D-halfOU(Ash61).mkv
Format : Matroska
Format version : Version 2
File size : 8.94 GiB
Duration : 1h 44mn
Overall bit rate : 12.2 Mbps
Movie name : Помпеи / Pompeii (2014) 3D
Encoded date : UTC 2014-05-17 09:50:24
Writing application : mkvmerge v5.8.0 ('No Sleep / Pillow') built on Sep 2 2012 15:37:04
Writing library : libebml v1.2.3 + libmatroska v1.3.0
Video
ID : 1
Format : AVC
Format/Info : Advanced Video Codec
Format profile : High@L4.1
Format settings, CABAC : Yes
Format settings, ReFrames : 4 frames
Codec ID : V_MPEG4/ISO/AVC
Duration : 1h 44mn
Bit rate : 10.7 Mbps
Width : 1 920 pixels
Height : 1 080 pixels
Display aspect ratio : 16:9
Frame rate mode : Constant
Frame rate : 23.976 fps
Color space : YUV
Chroma subsampling : 4:2:0
Bit depth : 8 bits
Scan type : Progressive
Bits/(Pixel*Frame) : 0.215
Stream size : 7.82 GiB (88%)
Title : BDRip by Ash61
Writing library : x264 core 129 r2245 bc13772
Encoding settings : cabac=1 / ref=4 / deblock=1:-3:-3 / analyse=0x3:0x113 / me=umh / subme=10 / psy=1 / psy_rd=1.00:0.15 / mixed_ref=1 / me_range=32 / chroma_me=1 / trellis=2 / 8x8dct=1 / cqm=0 / deadzone=21,11 / fast_pskip=1 / chroma_qp_offset=-3 / threads=12 / lookahead_threads=2 / sliced_threads=0 / nr=0 / decimate=1 / interlaced=0 / bluray_compat=0 / constrained_intra=0 / bframes=9 / b_pyramid=2 / b_adapt=2 / b_bias=0 / direct=3 / weightb=1 / open_gop=0 / weightp=2 / keyint=250 / keyint_min=23 / scenecut=40 / intra_refresh=0 / rc_lookahead=60 / rc=crf / mbtree=1 / crf=17.0 / qcomp=0.70 / qpmin=0 / qpmax=69 / qpstep=4 / vbv_maxrate=40000 / vbv_bufsize=30000 / crf_max=0.0 / nal_hrd=none / frame-packing=4 / ip_ratio=1.40 / aq=1:0.70
Language : English
Default : Yes
Forced : No
Audio #1
ID : 2
Format : AC-3
Format/Info : Audio Coding 3
Mode extension : CM (complete main)
Format settings, Endianness : Big
Codec ID : A_AC3
Duration : 1h 44mn
Bit rate mode : Constant
Bit rate : 640 Kbps
Channel(s) : 6 channels
Channel positions : Front: L C R, Side: L R, LFE
Sampling rate : 48.0 KHz
Bit depth : 16 bits
Compression mode : Lossy
Stream size : 481 MiB (5%)
Title : Дубляж - BD Rus (ляпы исправлены Ash61)
Language : Russian
Default : Yes
Forced : No
Audio #2
ID : 3
Format : AC-3
Format/Info : Audio Coding 3
Mode extension : CM (complete main)
Format settings, Endianness : Big
Codec ID : A_AC3
Duration : 1h 44mn
Bit rate mode : Constant
Bit rate : 640 Kbps
Channel(s) : 6 channels
Channel positions : Front: L C R, Side: L R, LFE
Sampling rate : 48.0 KHz
Bit depth : 16 bits
Compression mode : Lossy
Stream size : 481 MiB (5%)
Title : Original - BD 3D
Language : English
Default : No
Forced : No
Menu
00:00:00.000 : :1
00:05:27.077 : :2
00:09:51.674 : :3
00:15:58.457 : :4
00:19:52.858 : :5
00:26:45.103 : :6
00:32:36.621 : :7
00:38:18.838 : :8
00:47:35.811 : :9
00:52:17.718 : :10
01:03:25.218 : :11
01:09:02.930 : :12
01:17:27.309 : :13
01:23:46.521 : :14
01:30:04.149 : :15
01:35:08.119 : :16

P.S

Извините за плохое оформление. Я спешил :(
Благодарности релизеру (0)

Торрент:

Статус:

Размер:

Зарегистрирован   [ 2014-07-01 22:15 ]

D повтор

8.94 GB

 
Комментарии:





это что такое?
 

zhanmurat, Объясните на словах, что должно было быть в раздаче и в каком формате. Потому что "медиа инфо" от БлюРей ремукса на 40Гб, 3Д формат вообще древность, не соответствует ни БлюРей, ни рипам (трудно так закодировать в современных кодеках в интерлейс без мазни в строках), скрины 2Д, наверно от БлюРей или 2Д версии. Может просто не тот файл залили, должен был быть ремукс БД на 40Гб?
 

Zagruzin, да вы правы. Просто вчера очень спешил. Я уже заливал на рутор оказывается не тот хэш. Я все исправил. Можете в этом убедится.
 

zhanmurat, В таком случае это повтор, хоть и Сашин рип.
http://torrents3d.ru/article/5002/
 

Топик был перенесен из форума 3D Фильмы в форум Архив

Zagruzin