Торренты   
 
 


Дом-монстр в 3Д / Monster House in 3D (Гил Кинан) [2006 г., Фэнтези, комедия, детектив, анимация, BDRip 720p, OverUnder]

Рейтинг 3D:
3 голосов
5.0
Рейтинг фильма:
2 голосов
4.5
 
Вы должны быть авторизированы,
чтобы ставить оценки


Дом-монстр в 3Д / Monster House in 3D
Год выпуска: 2006
Страна: США
Жанр: Фэнтези, комедия, детектив, анимация
Продолжительность: 01:30:38
Перевод: Профессиональный (полное дублирование)
Режиссер: Гил Кинан
Озвучка: Райан Ньюман, Стив Бушеми, Митчел Муссо, Кэтрин О’Хара, Фред Уиллард, Сэм Лернер, Вуди Шульц, Йен МакКоннел, Мэгги Джилленхол, Джейсон Ли, Кевин Джеймс, Кэтлин Тёрнер
Описание: Хорошо быть мальчишкой. Каждый день, как вся жизнь! Столько всего вокруг: девчонки, мороженое, драки, учебники, футбол. Насыщенный день, короче, получается. А вот если ты однажды обнаружил, что дом, который стоит по соседству с домом твоей семьи — вовсе не дом… А попросту говоря — монстр. Чудовище, в общем. Такие дела.
Ну вот, история эта про то, как три приятеля — ДиДжей, Чёдер и Дженни — обнаружили, что дом, находящийся неподалеку, самый настоящий монстр. Только никто им не верил. Мало ли, чего навыдумывают дети… Только зря они так. Ребята их предупреждали…
Формат 3d: OverUnder
Качество: BDRip
Формат: MKV
Видео: MPEG4 Video (H264) 1280x1072 23.98fps ~6100 Кбит/с
Аудио 1: AC3, 448 Кбит/с, 48 kHz (6 ch) Russian
Аудио 2: AC3, 640 Кбит/с, 48 kHz (6 ch) English

Mediainfo

Format : Matroska
File size : 4.64 GiB
Duration : 1h 30mn
Overall bit rate : 7 334 Kbps
Encoded date : UTC 2010-09-14 15:59:35
Writing application : mkvmerge v2.9.7 ('Tenderness') built on Jul 1 2009 18:43:35
Writing library : libebml v0.7.7 + libmatroska v0.8.1
Video
ID : 1
Format : AVC
Format/Info : Advanced Video Codec
Format profile : High@L4.0
Format settings, CABAC : Yes
Format settings, ReFrames : 4 frames
Muxing mode : Container profile=Unknown@4.0
Codec ID : V_MPEG4/ISO/AVC
Duration : 1h 30mn
Bit rate : 6 100 Kbps
Width : 1 280 pixels
Height : 1 072 pixels
Display aspect ratio : 1.194
Original display aspect ratio : 0.889
Frame rate : 23.976 fps
Color space : YUV
Chroma subsampling : 4:2:0
Bit depth : 8 bits
Scan type : Progressive
Bits/(Pixel*Frame) : 0.185
Stream size : 3.86 GiB (83%)
Writing library : x264 core 104 r1713 c276662
Encoding settings : cabac=1 / ref=4 / deblock=1:-1:-1 / analyse=0x3:0x113 / me=umh / subme=7 / psy=1 / psy_rd=1.00:0.15 / mixed_ref=1 / me_range=16 / chroma_me=1 / trellis=2 / 8x8dct=1 / cqm=0 / deadzone=21,11 / fast_pskip=1 / chroma_qp_offset=-3 / threads=6 / sliced_threads=0 / nr=0 / decimate=1 / interlaced=0 / constrained_intra=0 / bframes=6 / b_pyramid=0 / b_adapt=2 / b_bias=0 / direct=3 / weightb=1 / open_gop=0 / weightp=2 / keyint=250 / keyint_min=23 / scenecut=40 / intra_refresh=0 / rc_lookahead=40 / rc=crf / mbtree=1 / crf=18.0 / qcomp=0.60 / qpmin=10 / qpmax=51 / qpstep=4 / ip_ratio=1.40 / aq=1:1.00
Language : English
Audio #1
ID : 2
Format : AC-3
Format/Info : Audio Coding 3
Mode extension : CM (complete main)
Codec ID : A_AC3
Duration : 1h 30mn
Bit rate mode : Constant
Bit rate : 448 Kbps
Channel(s) : 6 channels
Channel positions : Front: L C R, Side: L R, LFE
Sampling rate : 48.0 KHz
Bit depth : 16 bits
Stream size : 290 MiB (6%)
Title : AC3 5.1 @ 448 kbps - Дублированный
Language : Russian
Audio #2
ID : 3
Format : AC-3
Format/Info : Audio Coding 3
Mode extension : CM (complete main)
Codec ID : A_AC3
Duration : 1h 30mn
Bit rate mode : Constant
Bit rate : 640 Kbps
Channel(s) : 6 channels
Channel positions : Front: L C R, Side: L R, LFE
Sampling rate : 48.0 KHz
Bit depth : 16 bits
Stream size : 415 MiB (9%)
Title : AC3 5.1 @ 640 kbps
Language : English

Скриншоты


Благодарности релизеру (1)

Торрент:

Статус:

Размер:

Зарегистрирован   [ 2010-09-15 06:04 ]

проверено

4.64 GB