Торренты   
 
 

 

Приключения мистера Пибоди и Шермана / Mr. Peabody & Sherman (Роб Минкофф) [2014 г., Anamorph OverUnder]

Рейтинг 3D:
18 голосов
8.3
Рейтинг фильма:
17 голосов
8.2
 
Вы должны быть авторизированы,
чтобы ставить оценки



Приключения мистера Пибоди и Шермана / Mr. Peabody & Sherman
Год выпуска: 2014
Страна: США / Dreamworks Animation, Pacific Data Images (PDI), Bullwinkle Studios, Classic Media Productions
Жанр: мультфильм, фантастика, комедия, приключения, семейный
Продолжительность: 01:33:08
Перевод: Профессиональный (полное дублирование) [iTunes]
Режиссер: Роб Минкофф
В ролях: Тай Бурелл, Макс Чарльз, Эриель Винтер, Стефен Колбер, Лесли Манн, Эллисон Дженни, Стэнли Туччи, Том МакГрат, Лэйк Белл, Зак Каллисон
Описание: Мистер Пибоди — бизнесмен, изобретатель, ученый, нобелевский лауреат, гурман, двукратный олимпийский чемпион и гений… который кроме всего прочего является собакой. При помощи своего самого неординарного изобретения — машины ВЕЙБЕК — мистер Пибоди и его приемный сын Шерман мгновенно перемещаются в прошлое, где становятся свидетелями самых важных исторических событий и общаются с известными историческими персонажами. Но когда Шерман нарушает правила путешествий во времени, нашим героям приходится вновь отправиться в путь — на сей раз с целью восстановления цепи исторических событий и спасения будущего. Кроме того, мистеру Пибоди предстоит справиться с самой сложной для него задачей — стать настоящим отцом для Шермана....
Качество: BDrip
Контейнер: MKV
Формат 3D: Anamorph OverUnder / Вертикальная анаморфная стереопара
Порядок ракурсов: левый ракурс первый
Видео кодек: x264
Аудио кодек: AC-3
Видео: AVC, High@L4.1, 1920х1080, 23,976 кадра/сек, 7143 Кбит/сек
Аудио:
48 kHz, AC3 Dolby Digital, 3/2 (L,C,R,l,r) + LFE ch, 384.00 kbps | RUS
48 kHz, AC3 Dolby Digital, 3/2 (L,C,R,l,r) + LFE ch, 640.00 kbps | ENG
Субтитры: Русские, украинские (полные + форс.) английские (Forced + Full + SDH + SDH-Colored)

Скриншоты

Media Info

Общее
Уникальный идентификатор : 234996971822749335512450050434028421228 (0xB0CAC53EA920613A9F08099313A6406C)
Полное имя : H:\Source\Mr.Peabody&Sherman.3D.2014.BDrip.Half.OU.x264.AC3.(itsamna).mkv
Формат : Matroska
Версия формата : Version 4 / Version 2
Размер файла : 5,39 Гбайт
Продолжительность : 1 ч. 32 м.
Общий поток : 8333 Кбит/сек
Название фильма : Mr. Peabody & Sherman (2014) rip by itsamna aka StarStranger (release 3D-RuGroup)
Дата кодирования : UTC 2014-07-27 17:46:44
Программа кодирования : mkvmerge v6.8.0 ('Theme for Great Cities') 32bit built on Mar 2 2014 21:27:07
Библиотека кодирования : libebml v1.3.0 + libmatroska v1.4.1
Видео
Идентификатор : 1
Формат : AVC
Формат/Информация : Advanced Video Codec
Профиль формата : High@L4.1
Параметр CABAC формата : Да
Параметр ReFrames формата : 4 кадра
Идентификатор кодека : V_MPEG4/ISO/AVC
Продолжительность : 1 ч. 32 м.
Битрейт : 7143 Кбит/сек
Ширина : 1920 пикселей
Высота : 1080 пикселей
Соотношение сторон : 16:9
Режим частоты кадров : Постоянный
Частота кадров : 23,976 кадра/сек
Цветовое пространство : YUV
Субдискретизация насыщенности : 4:2:0
Битовая глубина : 8 бит
Тип развёртки : Прогрессивная
Бит/(Пиксели*Кадры) : 0.144
Размер потока : 4,62 Гбайт (86%)
Заголовок : rip by itsamna aka StarStranger (release 3D-RuGroup)
Библиотека кодирования : x264 core 130 r2273 b3065e6
Настройки программы : cabac=1 / ref=4 / deblock=1:-3:-3 / analyse=0x3:0x133 / me=umh / subme=10 / psy=1 / psy_rd=1.00:0.15 / mixed_ref=1 / me_range=32 / chroma_me=1 / trellis=2 / 8x8dct=1 / cqm=0 / deadzone=21,11 / fast_pskip=0 / chroma_qp_offset=-3 / threads=12 / lookahead_threads=2 / sliced_threads=0 / nr=0 / decimate=1 / interlaced=0 / bluray_compat=0 / constrained_intra=0 / bframes=8 / b_pyramid=2 / b_adapt=2 / b_bias=0 / direct=3 / weightb=1 / open_gop=0 / weightp=2 / keyint=250 / keyint_min=23 / scenecut=40 / intra_refresh=0 / rc_lookahead=60 / rc=crf / mbtree=1 / crf=18.0 / qcomp=0.60 / qpmin=0 / qpmax=69 / qpstep=4 / vbv_maxrate=50000 / vbv_bufsize=62500 / crf_max=0.0 / nal_hrd=none / ip_ratio=1.40 / aq=1:0.90
Default : Да
Forced : Нет
Аудио #1
Идентификатор : 2
Формат : AC-3
Формат/Информация : Audio Coding 3
Расширение режима : CM (complete main)
Параметр Endianness формата : Big
Идентификатор кодека : A_AC3
Продолжительность : 1 ч. 32 м.
Вид битрейта : Постоянный
Битрейт : 384 Кбит/сек
Каналы : 6 каналов
Расположение каналов : Front: L C R, Side: L R, LFE
Частота : 48,0 КГц
Битовая глубина : 16 бит
Метод сжатия : С потерями
Размер потока : 254 Мбайт (5%)
Заголовок : Dub | DD 5.1 @ 384 kbps - iTunes
Язык : Russian
Default : Да
Forced : Нет
Аудио #2
Идентификатор : 3
Формат : AC-3
Формат/Информация : Audio Coding 3
Расширение режима : CM (complete main)
Параметр Endianness формата : Big
Идентификатор кодека : A_AC3
Продолжительность : 1 ч. 32 м.
Вид битрейта : Постоянный
Битрейт : 640 Кбит/сек
Каналы : 6 каналов
Расположение каналов : Front: L C R, Side: L R, LFE
Частота : 48,0 КГц
Битовая глубина : 16 бит
Метод сжатия : С потерями
Размер потока : 424 Мбайт (8%)
Заголовок : Original | DD 5.1 @ 640 kbps
Язык : English
Default : Нет
Forced : Нет
Текст #1
Идентификатор : 4
Формат : UTF-8
Идентификатор кодека : S_TEXT/UTF8
Идентификатор кодека/Информация : UTF-8 Plain Text
Заголовок : полные
Язык : Russian
Default : Нет
Forced : Нет
Текст #2
Идентификатор : 5
Формат : UTF-8
Идентификатор кодека : S_TEXT/UTF8
Идентификатор кодека/Информация : UTF-8 Plain Text
Заголовок : полные
Язык : Ukrainian
Default : Нет
Forced : Нет
Текст #3
Идентификатор : 6
Формат : UTF-8
Идентификатор кодека : S_TEXT/UTF8
Идентификатор кодека/Информация : UTF-8 Plain Text
Заголовок : форс.
Язык : Ukrainian
Default : Нет
Forced : Нет
Текст #4
Идентификатор : 7
Формат : UTF-8
Идентификатор кодека : S_TEXT/UTF8
Идентификатор кодека/Информация : UTF-8 Plain Text
Заголовок : Forced
Язык : English
Default : Нет
Forced : Нет
Текст #5
Идентификатор : 8
Формат : UTF-8
Идентификатор кодека : S_TEXT/UTF8
Идентификатор кодека/Информация : UTF-8 Plain Text
Заголовок : SDH
Язык : English
Default : Нет
Forced : Нет
Текст #6
Идентификатор : 9
Формат : UTF-8
Идентификатор кодека : S_TEXT/UTF8
Идентификатор кодека/Информация : UTF-8 Plain Text
Заголовок : Full
Язык : English
Default : Нет
Forced : Нет
Текст #7
Идентификатор : 10
Формат : UTF-8
Идентификатор кодека : S_TEXT/UTF8
Идентификатор кодека/Информация : UTF-8 Plain Text
Заголовок : SDH-Colored
Язык : English
Default : Нет
Forced : Нет
Меню
00:00:00.000 : en:00:00:00.000
00:03:48.061 : en:00:03:48.061
00:07:12.223 : en:00:07:12.223
00:11:02.495 : en:00:11:02.495
00:13:30.018 : en:00:13:30.018
00:17:29.465 : en:00:17:29.465
00:21:48.516 : en:00:21:48.516
00:26:39.306 : en:00:26:39.306
00:28:40.177 : en:00:28:40.177
00:30:53.101 : en:00:30:53.101
00:33:57.452 : en:00:33:57.452
00:35:29.919 : en:00:35:29.919
00:37:47.182 : en:00:37:47.182
00:41:27.652 : en:00:41:27.652
00:44:47.685 : en:00:44:47.685
00:48:16.352 : en:00:48:16.352
00:51:48.981 : en:00:51:48.981
00:54:56.543 : en:00:54:56.543
00:58:32.801 : en:00:58:32.801
01:00:49.187 : en:01:00:49.187
01:02:53.186 : en:01:02:53.186
01:04:39.084 : en:01:04:39.084
01:08:22.265 : en:01:08:22.265
01:11:13.728 : en:01:11:13.728
01:14:52.655 : en:01:14:52.655
01:20:27.448 : en:01:20:27.448
01:21:40.312 : en:01:21:40.312
01:22:39.580 : en:01:22:39.580
--Релиз группы:

Проверено на встроенном плейере ТВ LG 42LW4500
--
Остальные раздачи этого фильма (2)
Благодарности релизеру (43)

Торрент:

Статус:

Размер:

Зарегистрирован   [ 2014-07-28 17:11 ]

проверено

5.39 GB

 
 Мнение о фильме (4)





Мультфильм не затянут, сюжет не банален. Юмор присутствует. Понравился, ржал раза 3 =))
 

МУЛЬТ - ЗАМЕЧАТЕЛЬНЫЙ!
 

Спасибо за мульт! Семье понравился!
 

Спасибо ! Прикольный мульт