Торренты   
 
 

 

Приключения мистера Пибоди и Шермана / Mr. Peabody & Sherman(Роб Минкофф / Rob Mi) [2014, Мультфильм, Фантастика, Комедия, Приключения, Семе, BDrip, 1080p]Full OverUnder / Вертикальная стереопара

Рейтинг 3D:
18 голосов
8.3
Рейтинг фильма:
17 голосов
8.2
 
Вы должны быть авторизированы,
чтобы ставить оценки


Приключения мистера Пибоди и Шермана / Mr. Peabody & Sherman
Год выпуска: 2014
Страна: США (20th Century Fox, DreamWorks Animation)
Жанр: Мультфильм, Фантастика, Комедия, Приключения, Семейный
Продолжительность: 1:32:30
Перевод: Профессиональный дублированный (Лицензия)
Русские субтитры: нет
Режиссер на русском: Роб Минкофф / Rob Minkoff
В ролях: Тай Бурелл, Макс Чарльз, Лаури Фрайзер, Гийом Аретос, Патрис А. Мьюсик, Эриель Винтер, Каран Брэр, Джошуа Раш, Стивен Тоболовски, Эллисон Дженни, Лесли Манн, Стэнли Туччи
Описание: Мистер Пибоди — бизнесмен, изобретатель, ученый, нобелевский лауреат, гурман, двукратный олимпийский чемпион и гений… который кроме всего прочего является собакой. При помощи своего самого неординарного изобретения — машины ВЕЙБЕК — мистер Пибоди и его приемный сын Шерман мгновенно перемещаются в прошлое, где становятся свидетелями самых важных исторических событий и общаются с известными историческими персонажами. Но когда Шерман нарушает правила путешествий во времени, нашим героям приходится вновь отправиться в путь — на сей раз с целью восстановления цепи исторических событий и спасения будущего. Кроме того, мистеру Пибоди предстоит справиться с самой сложной для него задачей — стать настоящим отцом для Шермана.
Сэмпл http://sendfile.su/1229018
Качество: BDrip
Контейнер: MKV
Формат 3D: OverUnder / Вертикальная стереопара
Порядок ракурсов: левый ракурс первый
Видео кодек: x264
Аудио кодек: AC3
Видео: AVC / High@L5.0 / 23,976 fps / 1920х2160 / 15,4 Мбит/сек
Аудио: Русский / AC3 / 48 KHz / 5.1 ch / 448 Кбит/сек (Лицензия)
Аудио 2: Английский / AC3 / 48 KHz / 5.1 ch / 640 Кбит/сек
Релиз группы: ВНИМАНИЕ ! На встроенных ТВ-плеерах работать не будет!!!
ТВ Samsung в названии которого есть надпись Ultra HD воспроизводят полные стереопары встроенными плеерами
Железные плееры на которых воспроизводятся полные стереопары:Popcorn C-200 , Dune HD Smart D1 , Dune HD DUO , Dune HD Smart H1 , Dune HD Smart B1 , Dune HD Max , Dune HD TV-303D , Dune HD Base 3D, Aura HD, Dune solo 4k
28.04.2016. Релиз обновлён русская звуковая дорожка iTunes заменена на лицензию.
Желающие, скачайте заново торрент-файл.

MediaInfo

Общее
Уникальный идентификатор : 196703407372247727676240731466518623641 (0x93FBB2BFFEE39D7E9CBD4938BF89F599)
Полное имя : F:\видео\Mr. Pеаbоdy & Sherman.Rip by SeRoGa00.mkv
Формат : Matroska
Версия формата : Version 2
Размер файла : 10,9 Гбайт
Продолжительность : 1 ч. 32 м.
Общий поток : 16,8 Мбит/сек
Дата кодирования : UTC 2016-04-28 04:22:21
Программа кодирования : mkvmerge v3.4.0 ('Rapunzel') сборка от May 15 2010 09:38:20
Библиотека кодирования : libebml v0.8.0 + libmatroska v0.9.0
Видео
Идентификатор : 1
Формат : AVC
Формат/Информация : Advanced Video Codec
Профиль формата : High@L5.0
Параметр CABAC формата : Да
Параметр ReFrames формата : 4 кадра
Идентификатор кодека : V_MPEG4/ISO/AVC
Продолжительность : 1 ч. 32 м.
Битрейт : 15,4 Мбит/сек
Ширина : 1920 пикселей
Высота : 2160 пикселей
Соотношение сторон : 0,889
Частота кадров : 23,976 кадра/сек
Цветовое пространство : YUV
Субдискретизация насыщенности : 4:2:0
Битовая глубина : 8 бит
Тип развёртки : Прогрессивная
Бит/(Пиксели*Кадры) : 0.155
Размер потока : 9,95 Гбайт (92%)
Заголовок : Rip by SeRoGa00
Библиотека кодирования : x264 core 142 r2431 ac76440
Настройки программы : cabac=1 / ref=4 / deblock=1:-3:-3 / analyse=0x3:0x113 / me=umh / subme=9 / psy=1 / psy_rd=1.00:0.15 / mixed_ref=1 / me_range=24 / chroma_me=1 / trellis=2 / 8x8dct=1 / cqm=0 / deadzone=21,11 / fast_pskip=1 / chroma_qp_offset=-3 / threads=9 / lookahead_threads=1 / sliced_threads=0 / nr=0 / decimate=1 / interlaced=0 / bluray_compat=0 / constrained_intra=0 / bframes=8 / b_pyramid=2 / b_adapt=2 / b_bias=0 / direct=3 / weightb=1 / open_gop=0 / weightp=2 / keyint=250 / keyint_min=23 / scenecut=40 / intra_refresh=0 / rc_lookahead=60 / rc=crf / mbtree=1 / crf=18.0 / qcomp=0.60 / qpmin=10 / qpmax=69 / qpstep=4 / vbv_maxrate=40000 / vbv_bufsize=40000 / crf_max=0.0 / nal_hrd=none / filler=0 / ip_ratio=1.40 / aq=1:1.00
Язык : English
Default : Нет
Forced : Нет
Аудио #1
Идентификатор : 2
Формат : AC-3
Формат/Информация : Audio Coding 3
Расширение режима : CM (complete main)
Параметр Endianness формата : Big
Идентификатор кодека : A_AC3
Продолжительность : 1 ч. 32 м.
Вид битрейта : Постоянный
Битрейт : 448 Кбит/сек
Каналы : 6 каналов
Расположение каналов : Front: L C R, Side: L R, LFE
Частота : 48,0 КГц
Битовая глубина : 16 бит
Метод сжатия : С потерями
Размер потока : 296 Мбайт (3%)
Язык : Russian
Default : Да
Forced : Нет
Аудио #2
Идентификатор : 3
Формат : AC-3
Формат/Информация : Audio Coding 3
Расширение режима : CM (complete main)
Параметр Endianness формата : Big
Идентификатор кодека : A_AC3
Продолжительность : 1 ч. 32 м.
Вид битрейта : Постоянный
Битрейт : 640 Кбит/сек
Каналы : 6 каналов
Расположение каналов : Front: L C R, Side: L R, LFE
Частота : 48,0 КГц
Битовая глубина : 16 бит
Метод сжатия : С потерями
Размер потока : 423 Мбайт (4%)
Язык : English
Default : Нет
Forced : Нет

Скриншоты


Остальные раздачи этого фильма (2)
Благодарности релизеру (6)

Торрент:

Статус:

Размер:

Зарегистрирован   [ 2016-04-28 09:52 ]

* не проверено

10.87 GB

 
 Мнение о фильме (4)





Мультфильм не затянут, сюжет не банален. Юмор присутствует. Понравился, ржал раза 3 =))
 

МУЛЬТ - ЗАМЕЧАТЕЛЬНЫЙ!
 

Спасибо за мульт! Семье понравился!
 

Спасибо ! Прикольный мульт