Торренты   
 
 


Children of Steel [2014 г., Anamorph OverUnder]

Рейтинг 3D:
Пока никто не голосовал
Рейтинг фильма:
Пока никто не голосовал
 
Вы должны быть авторизированы,
чтобы ставить оценки


Children of Steel
Год выпуска: 2014
Страна: Россия
Жанр: Видовой фильм
Продолжительность: 3:15
Описание: Неуловимая романтика индустриальных пейзажей в потрясающем 3D! Магия стереокино переносит зрителя на станцию Ростов Берег, позволяя наслаждаться красотой индустриальной зоны.
Формат 3D: Anamorph OverUnder
Видео: H.264, 1920x1080, 25 Мбит/сек, 25FPS
Аудио: AAC, 384 Кбит/сек, 48,0 КГц, стерео
Обновление от 02.08.2014
Фильм был переделан в анаморфную вертикальную стереопару. Просьба перекачать заново торрент-файл!

Предпросмотр на YouTube

Прежде чем скачать, вы можете посмотреть фильм на YouTube.

Скриншоты





Media Info

Общее
Полное имя : G:\Раздачи\torrents3d.ru\Children of Steel 3D\Children of Steel 3D.mp4
Формат : MPEG-4
Профиль формата : JVT
Идентификатор кодека : avc1
Размер файла : 551 Мбайт
Продолжительность : 3 м. 14 с.
Режим общего битрейта : Переменный
Общий поток : 23,8 Мбит/сек
Дата кодирования : UTC 2014-08-02 05:33:13
Дата пометки : UTC 2014-08-02 05:33:13
Видео
Идентификатор : 1
Формат : AVC
Формат/Информация : Advanced Video Codec
Профиль формата : High@L4.1
Параметр CABAC формата : Да
Параметр ReFrames формата : 2 кадра
Идентификатор кодека : avc1
Идентификатор кодека/Информация : Advanced Video Coding
Продолжительность : 3 м. 14 с.
Вид битрейта : Переменный
Битрейт : 23,4 Мбит/сек
Максимальный битрейт : 27,0 Мбит/сек
Ширина : 1920 пикселей
Высота : 1080 пикселей
Соотношение сторон : 16:9
Режим частоты кадров : Постоянный
Частота кадров : 25,000 кадров/сек
Цветовое пространство : YUV
Субдискретизация насыщенности : 4:2:0
Битовая глубина : 8 бит
Тип развёртки : Прогрессивная
Бит/(Пиксели*Кадры) : 0.451
Размер потока : 542 Мбайт (98%)
Язык : English
Дата кодирования : UTC 2014-08-02 05:33:13
Дата пометки : UTC 2014-08-02 05:33:13
Аудио
Идентификатор : 2
Формат : AAC
Формат/Информация : Advanced Audio Codec
Профиль формата : LC
Идентификатор кодека : 40
Продолжительность : 3 м. 14 с.
Продолжительность оригинала : 3 м. 14 с.
Вид битрейта : Постоянный
Битрейт : 384 Кбит/сек
Каналы : 2 канала
Расположение каналов : Front: L R
Частота : 48,0 КГц
Метод сжатия : С потерями
Размер потока : 8,89 Мбайт (2%)
Размер потока оригинала : 8,90 Мбайт (2%)
Язык : English
Дата кодирования : UTC 2014-08-02 05:33:13
Дата пометки : UTC 2014-08-02 05:33:13
Благодарности релизеру (5)

Торрент:

Статус:

Размер:

Зарегистрирован   [ 2014-08-02 10:01 ]

проверено

551 MB

 
Андрей Соболь Профиль 01-Авг-2014 18:20