Торренты   
 
 


Первый мститель: Другая война / Captain America: The Winter Soldier (Энтони Руссо, Джо Руссо) [2014 г., Anamorph OverUnder]

Рейтинг 3D:
21 голосов
6.9
Рейтинг фильма:
23 голосов
7.7
 
Вы должны быть авторизированы,
чтобы ставить оценки



Первый мститель: Другая война / Captain America: The Winter Soldier
Год выпуска: 2014
Страна: США / Marvel Entertainment, Marvel Studios Inc., Sony Pictures Imageworks, Perception
Жанр: фантастика, боевик, приключения
Продолжительность: 02:15:54
Перевод: Профессиональный (полное дублирование)
Режиссер: Энтони Руссо, Джо Руссо
В ролях: Крис Эванс, Скарлетт Йоханссон, Энтони Маки, Себастьян Стэн, Сэмюэл Л. Джексон, Роберт Редфорд, Фрэнк Грилло, Коби Смолдерс, Эмили ВанКэмп, Максимилиано Эрнандес
Описание: После беспрецедентных событий, впервые собравших вместе команду Мстителей, Стив Роджерс, известный также как Капитан Америка, оседает в Вашингтоне и пытается приспособиться к жизни в современном мире. Но покой этому герою только снится — пытаясь помочь коллеге из агентства Щ. И. Т, Стив оказывается в центре событий, грозящих катастрофой мирового масштаба. Для того, чтобы разоблачить злодейский заговор, Капитан Америка объединяется с Черной вдовой. К ним также присоединяется новый соратник, известный как Сокол, однако никто из них даже не подозревает, на что способен новый враг.
Качество: BDrip
Контейнер: MKV
Формат 3D: Anamorph OverUnder / Вертикальная анаморфная стереопара
Порядок ракурсов: левый ракурс первый
Видео кодек: x264
Аудио кодек: AC-3
Видео: AVC, High@L4.1, 1920х1080, 23,976 кадра/сек, 8175 Кбит/сек
Аудио:
48 kHz, AC3 Dolby Digital, 5/1 ch, ~640.00 kbps avg |Russian| |Дубляж, Blu-ray CEE|
48 kHz, AC3 Dolby Digital, 5/1 ch, ~640.00 kbps avg |English|
Cубтитры: Русские (полные + форс.), русские (комментарии), английские (Forced + Full + SDH + SDH-Colored)

Скриншоты

Media Info

Общее
Уникальный идентификатор : 174591644538983555759566377761216596373 (0x835920AC14ACE3018E85C6E5675B0995)
Полное имя : H:\Source\CaptainAmerica.TheWinterSoldier.3D.2014.BDrip.Half.OU.x264.AC3.(itsamna).mkv
Формат : Matroska
Версия формата : Version 4 / Version 2
Размер файла : 9,16 Гбайт
Продолжительность : 2 ч. 15 м.
Общий поток : 9647 Кбит/сек
Название фильма : Captain America: The Winter Soldier (2014) release 3D-RuGroup
Дата кодирования : UTC 2014-08-02 09:07:04
Программа кодирования : mkvmerge v6.8.0 ('Theme for Great Cities') 32bit built on Mar 2 2014 21:27:07
Библиотека кодирования : libebml v1.3.0 + libmatroska v1.4.1
Видео
Идентификатор : 1
Формат : AVC
Формат/Информация : Advanced Video Codec
Профиль формата : High@L4.1
Параметр CABAC формата : Да
Параметр ReFrames формата : 4 кадра
Идентификатор кодека : V_MPEG4/ISO/AVC
Продолжительность : 2 ч. 15 м.
Битрейт : 8175 Кбит/сек
Ширина : 1920 пикселей
Высота : 1080 пикселей
Соотношение сторон : 16:9
Режим частоты кадров : Постоянный
Частота кадров : 23,976 кадра/сек
Цветовое пространство : YUV
Субдискретизация насыщенности : 4:2:0
Битовая глубина : 8 бит
Тип развёртки : Прогрессивная
Бит/(Пиксели*Кадры) : 0.164
Размер потока : 7,76 Гбайт (85%)
Заголовок : rip by itsamna aka StarStranger (release 3D-RuGroup)
Библиотека кодирования : x264 core 130 r2273 b3065e6
Настройки программы : cabac=1 / ref=4 / deblock=1:-3:-3 / analyse=0x3:0x133 / me=umh / subme=10 / psy=1 / psy_rd=1.00:0.15 / mixed_ref=1 / me_range=32 / chroma_me=1 / trellis=2 / 8x8dct=1 / cqm=0 / deadzone=21,11 / fast_pskip=0 / chroma_qp_offset=-3 / threads=12 / lookahead_threads=2 / sliced_threads=0 / nr=0 / decimate=1 / interlaced=0 / bluray_compat=0 / constrained_intra=0 / bframes=8 / b_pyramid=2 / b_adapt=2 / b_bias=0 / direct=3 / weightb=1 / open_gop=0 / weightp=2 / keyint=250 / keyint_min=23 / scenecut=40 / intra_refresh=0 / rc_lookahead=60 / rc=crf / mbtree=1 / crf=16.5 / qcomp=0.60 / qpmin=0 / qpmax=69 / qpstep=4 / vbv_maxrate=50000 / vbv_bufsize=62500 / crf_max=0.0 / nal_hrd=none / ip_ratio=1.40 / aq=1:0.90
Default : Да
Forced : Нет
Аудио #1
Идентификатор : 2
Формат : AC-3
Формат/Информация : Audio Coding 3
Расширение режима : CM (complete main)
Параметр Endianness формата : Big
Идентификатор кодека : A_AC3
Продолжительность : 2 ч. 15 м.
Вид битрейта : Постоянный
Битрейт : 640 Кбит/сек
Каналы : 6 каналов
Расположение каналов : Front: L C R, Side: L R, LFE
Частота : 48,0 КГц
Битовая глубина : 16 бит
Метод сжатия : С потерями
Размер потока : 622 Мбайт (7%)
Заголовок : Dub | DD 5.1 @ 640 kbps - Blu-Ray CEE
Язык : Russian
Default : Да
Forced : Нет
Аудио #2
Идентификатор : 3
Формат : AC-3
Формат/Информация : Audio Coding 3
Расширение режима : CM (complete main)
Параметр Endianness формата : Big
Идентификатор кодека : A_AC3
Продолжительность : 2 ч. 15 м.
Вид битрейта : Постоянный
Битрейт : 640 Кбит/сек
Каналы : 6 каналов
Расположение каналов : Front: L C R, Side: L R, LFE
Частота : 48,0 КГц
Битовая глубина : 16 бит
Метод сжатия : С потерями
Задержка видео : 27 мс.
Размер потока : 622 Мбайт (7%)
Заголовок : Original | DD 5.1 @ 640 kbps
Язык : English
Default : Нет
Forced : Нет
Текст #1
Идентификатор : 4
Формат : UTF-8
Идентификатор кодека : S_TEXT/UTF8
Идентификатор кодека/Информация : UTF-8 Plain Text
Заголовок : форс.
Язык : Russian
Default : Да
Forced : Нет
Текст #2
Идентификатор : 5
Формат : UTF-8
Идентификатор кодека : S_TEXT/UTF8
Идентификатор кодека/Информация : UTF-8 Plain Text
Заголовок : Blu-Ray
Язык : Russian
Default : Нет
Forced : Нет
Текст #3
Идентификатор : 6
Формат : UTF-8
Идентификатор кодека : S_TEXT/UTF8
Идентификатор кодека/Информация : UTF-8 Plain Text
Заголовок : комментарии
Язык : Russian
Default : Нет
Forced : Нет
Текст #4
Идентификатор : 7
Формат : UTF-8
Идентификатор кодека : S_TEXT/UTF8
Идентификатор кодека/Информация : UTF-8 Plain Text
Заголовок : Forced
Язык : English
Default : Нет
Forced : Нет
Текст #5
Идентификатор : 8
Формат : UTF-8
Идентификатор кодека : S_TEXT/UTF8
Идентификатор кодека/Информация : UTF-8 Plain Text
Заголовок : Full
Язык : English
Default : Нет
Forced : Нет
Текст #6
Идентификатор : 9
Формат : UTF-8
Идентификатор кодека : S_TEXT/UTF8
Идентификатор кодека/Информация : UTF-8 Plain Text
Заголовок : SDH
Язык : English
Default : Нет
Forced : Нет
Текст #7
Идентификатор : 10
Формат : UTF-8
Идентификатор кодека : S_TEXT/UTF8
Идентификатор кодека/Информация : UTF-8 Plain Text
Заголовок : SDH-Colored
Язык : English
Default : Нет
Forced : Нет
Меню
00:00:00.000 : en:(01)00:00:00:000
00:03:28.666 : en:(02)00:03:28:666
00:13:31.727 : en:(03)00:13:31:727
00:17:57.868 : en:(04)00:17:57:868
00:22:25.302 : en:(05)00:22:25:302
00:33:20.415 : en:(06)00:33:20:415
00:41:27.276 : en:(07)00:41:27:276
00:51:37.302 : en:(08)00:51:37:302
00:58:23.958 : en:(09)00:58:23:958
01:07:40.347 : en:(10)01:07:40:347
01:16:22.202 : en:(11)01:16:22:202
01:24:43.078 : en:(12)01:24:43:078
01:32:17.698 : en:(13)01:32:17:698
01:37:06.612 : en:(14)01:37:06:612
01:49:13.088 : en:(15)01:49:13:088
01:55:03.730 : en:(16)01:55:03:730
02:01:11.055 : en:(17)02:01:11:055
02:06:22.241 : en:(18)02:06:22:241
02:15:53.937 : en:(19)02:15:53:937
--Релиз группы:

Проверено на встроенном плейере ТВ LG 42LW4500
--
Благодарности релизеру (50)

Торрент:

Статус:

Размер:

Зарегистрирован   [ 2014-08-02 14:05 ]

проверено

9.16 GB

 
 Мнение о фильме (9)





прокатчикам пять баллов за перевод названия фильма
Captain America - Первый мститель
The Winter Soldier - Другая война
...твою налево
 

Фильм понравился.Спасибо)))
 

встаньте кто нибудь на раздачу)
 

ды нормуль льёт !
 

опять же 3D норм.но без вылетов.сам фильм на 1 раз.логики и мотивов ноль.
 

Спасибо!
Качество в норме. Фильм разового просмотра.
 

Когда примерно ожидать CROP'а?
 

Когда примерно ожидать CROP'а?
Никогда, если не зайдёте в раздел Кропов ("Без чёрных полос").
 

За труды спасибо...Только контуры частенько двоятся.