Торренты   
 
 

 

Новый Человек-паук: Высокое напряжение 3Д / The Amazing Spider-Man 2: Rise of Electro 3D (Марк Уэбб) [2014 г. Фэнтези, боевик, приключения,BDrip-AVC] Anamorph SideBySide / Горизонтальная анаморфная стереопара

Рейтинг 3D:
24 голосов
7.5
Рейтинг фильма:
25 голосов
7.6
 
Вы должны быть авторизированы,
чтобы ставить оценки


Новый Человек-паук: Высокое напряжение 3Д / The Amazing Spider-Man 2: Rise of Electro 3D
Год выпуска: 2014
Страна: США, Marvel Enterprises, Avi Arad Productions, Columbia
Жанр: Фэнтези, боевик, приключения, комикс, супергерой
Продолжительность: 02:21:34
Перевод: Профессиональный (полное дублирование) [iTunes]
Режиссер: Марк Уэбб
В ролях: Эндрю Гарфилд, Эмма Стоун, Джейми Фокс, Дэйн ДеХаан, Колм Фиор, Фелисити Джонс, Пол Джаматти, Салли Филд, Эмбет Дэвидц, Кэмпбелл Скотт
Описание: Питер Паркер под маской Человека-паука по-прежнему спасает мир от злодеев и преступников, а свободное время проводит со своей возлюбленной Гвен, но школьная пора близится к концу, и впереди героев ждет взрослая жизнь. Питер помнит о том, что дал отцу Гвен слово навсегда уйти из жизни девушки, тем самым больше не подвергая ее опасности. Однако сдержать это обещание не так просто. Судьба готовит Питеру сюрпризы: на его пути появится новый противник — Электро, а также ему будет суждено вновь встретиться с давним приятелем Гарри Озборном и узнать много нового о прошлом своей семьи.
Качество: BDRip - AVC
Контейнер: MKV
Формат 3D: Half SideBySide / Горизонтальная анаморфная стереопара
Порядок ракурсов: левый ракурс первый
Видео кодек: x264
Аудио кодек: AC3,DTS
Видео: AVC, 1920x1080 (16:9), 23.976 fps, 14.2 Mbps (0.286 bit/pixel)
Аудио #1: AC-3, 48.0 KHz, 6 ch, 384 Kbps, CBR (Russian)
Аудио #2: AC-3, 48.0 KHz, 2 ch, 192 Kbps, CBR (Ukrainian)
Аудио #3: DTS, 48.0 KHz, 6 ch, 1 510 Kbps, CBR (English)
Субтитры: Russian, Russian, English, English, English

Скриншоты



Media Info

Формат : Matroska
Версия формата : Version 2
Размер файла : 16,4 Гбайт
Продолжительность : 2 ч. 21 м.
Общий поток : 16,6 Мбит/сек
Название фильма : The Amazing Spider-Man 2 (2014) 3D
Дата кодирования : UTC 2014-08-03 04:13:15
Программа кодирования : mkvmerge v5.7.0 ('The Whirlwind') built on Aug 7 2012 14:11:40
Библиотека кодирования : libebml v1.2.3 + libmatroska v1.3.0
Attachment : Yes
Видео
Идентификатор : 1
Формат : AVC
Формат/Информация : Advanced Video Codec
Профиль формата : High@L4.1
Параметр CABAC формата : Да
Параметр ReFrames формата : 4 кадра
Идентификатор кодека : V_MPEG4/ISO/AVC
Продолжительность : 2 ч. 21 м.
Битрейт : 14,2 Мбит/сек
Ширина : 1920 пикселей
Высота : 1080 пикселей
Соотношение сторон : 16:9
Режим частоты кадров : Постоянный
Частота кадров : 23,976 кадра/сек
Цветовое пространство : YUV
Субдискретизация насыщенности : 4:2:0
Битовая глубина : 8 бит
Тип развёртки : Прогрессивная
Бит/(Пиксели*Кадры) : 0.286
Размер потока : 14,0 Гбайт (85%)
Заголовок : Новый.Человек-паук.Высокое.напряжение-The.Amazing.Spider-Man.2.(2014).BDRip.[1080p].3D
Библиотека кодирования : x264 core 133 r2334 a3ac64b
Настройки программы : cabac=1 / ref=4 / deblock=1:-3:-3 / analyse=0x3:0x133 / me=umh / subme=10 / psy=1 / psy_rd=0.90:0.00 / mixed_ref=1 / me_range=24 / chroma_me=1 / trellis=2 / 8x8dct=1 / cqm=0 / deadzone=21,11 / fast_pskip=0 / chroma_qp_offset=-2 / threads=6 / lookahead_threads=1 / sliced_threads=0 / nr=0 / decimate=1 / interlaced=0 / bluray_compat=0 / constrained_intra=0 / bframes=7 / b_pyramid=2 / b_adapt=2 / b_bias=0 / direct=3 / weightb=1 / open_gop=0 / weightp=2 / keyint=9 / keyint_min=1 / scenecut=40 / intra_refresh=0 / rc_lookahead=17 / rc=crf / mbtree=0 / crf=17.4 / qcomp=0.60 / qpmin=0 / qpmax=69 / qpstep=4 / vbv_maxrate=40000 / vbv_bufsize=30000 / crf_max=0.0 / nal_hrd=none / frame-packing=3 / ip_ratio=1.40 / pb_ratio=1.30 / aq=1:0.85
Язык : English
Default : Да
Forced : Нет
Аудио #1
Идентификатор : 2
Формат : AC-3
Формат/Информация : Audio Coding 3
Расширение режима : CM (complete main)
Параметр Endianness формата : Big
Идентификатор кодека : A_AC3
Продолжительность : 2 ч. 21 м.
Вид битрейта : Постоянный
Битрейт : 384 Кбит/сек
Каналы : 6 каналов
Расположение каналов : Front: L C R, Side: L R, LFE
Частота : 48,0 КГц
Битовая глубина : 16 бит
Метод сжатия : С потерями
Размер потока : 389 Мбайт (2%)
Заголовок : AC3 5.1 / 384 kbps / Dub (iTunes)
Язык : Russian
Default : Да
Forced : Нет
Аудио #2
Идентификатор : 3
Формат : AC-3
Формат/Информация : Audio Coding 3
Расширение режима : CM (complete main)
Параметр Endianness формата : Big
Идентификатор кодека : A_AC3
Продолжительность : 2 ч. 21 м.
Вид битрейта : Постоянный
Битрейт : 192 Кбит/сек
Каналы : 2 канала
Расположение каналов : Front: L R
Частота : 48,0 КГц
Битовая глубина : 16 бит
Метод сжатия : С потерями
Размер потока : 194 Мбайт (1%)
Заголовок : AC3 2.0 / 192 kbps / Dub (iTunes)
Язык : Ukrainian
Default : Нет
Forced : Нет
Аудио #3
Идентификатор : 4
Формат : DTS
Формат/Информация : Digital Theater Systems
Идентификатор кодека : A_DTS
Продолжительность : 2 ч. 21 м.
Вид битрейта : Постоянный
Битрейт : 1510 Кбит/сек
Каналы : 6 каналов
Расположение каналов : Front: L C R, Side: L R, LFE
Частота : 48,0 КГц
Битовая глубина : 24 бит
Метод сжатия : С потерями
Размер потока : 1,49 Гбайт (9%)
Заголовок : DTS 5.1 / 1536 kbps / Original
Язык : English
Default : Нет
Forced : Нет
Текст #1
Идентификатор : 5
Формат : UTF-8
Идентификатор кодека : S_TEXT/UTF8
Идентификатор кодека/Информация : UTF-8 Plain Text
Заголовок : Forced
Язык : Russian
Default : Да
Forced : Нет
Текст #2
Идентификатор : 6
Формат : UTF-8
Идентификатор кодека : S_TEXT/UTF8
Идентификатор кодека/Информация : UTF-8 Plain Text
Заголовок : Full
Язык : Russian
Default : Нет
Forced : Нет
Текст #3
Идентификатор : 7
Формат : UTF-8
Идентификатор кодека : S_TEXT/UTF8
Идентификатор кодека/Информация : UTF-8 Plain Text
Заголовок : Full
Язык : English
Default : Нет
Forced : Нет
Текст #4
Идентификатор : 8
Формат : UTF-8
Идентификатор кодека : S_TEXT/UTF8
Идентификатор кодека/Информация : UTF-8 Plain Text
Заголовок : SDH
Язык : English
Default : Нет
Forced : Нет
Текст #5
Идентификатор : 9
Формат : UTF-8
Идентификатор кодека : S_TEXT/UTF8
Идентификатор кодека/Информация : UTF-8 Plain Text
Заголовок : SDH (Colored)
Язык : English
Default : Нет
Forced : Нет
Меню
00:00:00.000 : en:00:00:00.000
00:07:05.342 : en:00:07:05.342
00:14:28.201 : en:00:14:28.201
00:20:13.838 : en:00:20:13.838
00:29:27.099 : en:00:29:27.099
00:39:02.590 : en:00:39:02.590
00:50:56.804 : en:00:50:56.804
00:59:52.756 : en:00:59:52.756
01:08:53.129 : en:01:08:53.129
01:16:19.950 : en:01:16:19.950
01:25:27.706 : en:01:25:27.706
01:35:23.259 : en:01:35:23.259
01:41:30.334 : en:01:41:30.334
01:49:18.343 : en:01:49:18.343
01:57:00.639 : en:01:57:00.639
02:04:44.352 : en:02:04:44.352

Анимированные скриншоты :


-
Благодарности релизеру (31)

Торрент:

Статус:

Размер:

Зарегистрирован   [ 2014-08-03 15:15 ]

проверено

16.44 GB

 
 Мнение о фильме (20)





вроде конверт же. судя по анимации первая картинка еще норма а вот вторая точно конверт.
 

killer29, и опять же - в заголовке исправить Half SideBySide на Anamorph SideBySide. :)
vovan8, этот рип не авто-конверт. Ну а то, что на втором скрине авто-конверт - видимо так сделали создатели фильма.

Анимированные скрины данного релиза


 

ash61,
Исправил...видимо учиться и еще раз учиться...
 

согласен уже)
 

Ждем в вертикальке и без черных полос
 

а что в вертикалке лучше чем в горизонталке?)
 

что в вертикалке лучше чем в горизонталке?)
Для пассивного 3д да, лучше.
 

co6jla3h, Для пассивного 3д да, лучше.
 

Спасибо !!!
 

Привет Киллер когда можно ждать твой релиз без черных полос? этого фильма?
 

Prikol,
Я релизы не делаю....
 

А 3Д то крутое в пауке
 

не очень..
 

смотрел в кинотеатре.здесь 3D както лучше...НО без вылетов. LG la662.
 

lg la660... 3d впечатлил... в "мстителе" не так, к примеру, радует. что в кино что дома. здесь прям я чуть ли не в восторге был...
 

Сиквел получился лучше первой части. Спецэффекты на уровне, сюжет в меру вменяем для фильмов такого жанра, 3д тоже не подвело, объем в некоторых сценах зашкаливает.
 

а размером по меньше есть откуда скачать?
 

Подскажите что за оказия такая. Скачиваю торрент файл, начинается закачка, потом спустя минуту скорость падает, а программа битторрент как будто бы зависает и перестает качать. Такая же фигня происходит и с юторрентом. Обратил внимание что такие траблы происходят только с файлами выше 15 гигов.
 

Все разобрался. Увеличил значение кэша до 1024 и все стало в норме.
 

Встаньте дом.ру на раздачу плиз!