Торренты   
 
 

 

Мой кровавый Валентин 3Д / My Bloody Valentine 3D (Патрик Люссье / Patrick Lussier) [2009 г., Ужасы, триллер, криминал, детектив, OverUnder / Вертикальная стереопара, BDRip 720p]

Рейтинг 3D:
9 голосов
7.6
Рейтинг фильма:
9 голосов
6.6
 
Вы должны быть авторизированы,
чтобы ставить оценки


Мой кровавый Валентин 3Д / My Bloody Valentine 3D
Год выпуска: 2009
Страна: США
Жанр: Ужасы, триллер, криминал, детектив
Продолжительность: 01:41:01
Перевод: Профессиональный (полное дублирование)
Режиссер: Патрик Люссье / Patrick Lussier
В ролях: Дженсен Эклс, Джейми Кинг, Керр Смит, Бетси Ру, Эди Гатеги, Том Аткинс, Кевин Тай, Меган Бун, Карен Баумм, Джой Де Ла Пас
Описание: Том возвращается в родной городок, спустя 10 лет после ужасных событий, произошедших в День святого Валентина. С приездом молодого человека жители города начинают умирать от рук неизвестного маньяка, и подозрения сразу же падают на Тома. Вместе с девушкой Сарой, в которую он когда-то был влюблен, Том обязан найти неуловимого убийцу…

Формат 3D: OverUnder / Вертикальная стереопара
Доп. информация: За предоставленный рип большое спасибо eugeniy

Mediainfo

Format : Matroska
File size : 5.80 GiB
Duration : 1h 41mn
Overall bit rate : 8 217 Kbps
Encoded date : UTC 2010-10-07 08:32:34
Writing application : mkvmerge v2.9.7 ('Tenderness') built on Jul 1 2009 18:43:35
Writing library : libebml v0.7.7 + libmatroska v0.8.1
Video
ID : 1
Format : AVC
Format/Info : Advanced Video Codec
Format profile : High@L4.0
Format settings, CABAC : Yes
Format settings, ReFrames : 4 frames
Muxing mode : Container profile=Unknown@4.0
Codec ID : V_MPEG4/ISO/AVC
Duration : 1h 41mn
Bit rate : 5 789 Kbps
Width : 1 280 pixels
Height : 1 412 pixels
Display aspect ratio : 0.907
Frame rate : 23.976 fps
Color space : YUV
Chroma subsampling : 4:2:0
Bit depth : 8 bits
Scan type : Progressive
Bits/(Pixel*Frame) : 0.134
Stream size : 4.08 GiB (70%)
Writing library : x264 core 105 r1724 b02df7b
Encoding settings : cabac=1 / ref=4 / deblock=1:-2:-2 / analyse=0x3:0x113 / me=umh / subme=7 / psy=1 / psy_rd=1.00:0.15 / mixed_ref=1 / me_range=16 / chroma_me=1 / trellis=2 / 8x8dct=1 / cqm=0 / deadzone=21,11 / fast_pskip=1 / chroma_qp_offset=-3 / threads=6 / sliced_threads=0 / nr=0 / decimate=1 / interlaced=0 / constrained_intra=0 / bframes=6 / b_pyramid=0 / b_adapt=2 / b_bias=0 / direct=3 / weightb=1 / open_gop=0 / weightp=2 / keyint=250 / keyint_min=23 / scenecut=40 / intra_refresh=0 / rc_lookahead=40 / rc=crf / mbtree=1 / crf=18.0 / qcomp=0.60 / qpmin=10 / qpmax=51 / qpstep=4 / ip_ratio=1.40 / aq=1:1.00
Language : English
Audio #1
ID : 2
Format : DTS
Format/Info : Digital Theater Systems
Codec ID : A_DTS
Duration : 1h 41mn
Bit rate mode : Constant
Bit rate : 755 Kbps
Channel(s) : 6 channels
Channel positions : Front: L C R, Side: L R, LFE
Sampling rate : 48.0 KHz
Bit depth : 24 bits
Stream size : 545 MiB (9%)
Language : Russian
Audio #2
ID : 3
Format : DTS
Format/Info : Digital Theater Systems
Codec ID : A_DTS
Duration : 1h 41mn
Bit rate mode : Constant
Bit rate : 1 510 Kbps
Channel(s) : 6 channels
Channel positions : Front: L C R, Side: L R, LFE
Sampling rate : 48.0 KHz
Bit depth : 24 bits
Stream size : 1.07 GiB (18%)
Language : English

Скриншоты


Качество: BDRip 720p
Контейнер: MKV
Видео: MPEG4 Video (H264) 1280x1412 23.98fps 5789 Kbps
Аудио1: DTS 48000Hz 6ch 755 Kbps (дубляж)
Аудио2: DTS 48000Hz 6ch 1510 Kbps
Благодарности релизеру (2)

Торрент:

Статус:

Размер:

Зарегистрирован   [ 2010-10-08 04:32 ]

проверено

5.8 GB