Торренты   
 
 

 

Вольт в 3Д / Bolt in 3D (Байрон Ховард, Крис Уильямс / Byron Howard, Chris Williams) [2008 г., Комедия, семейный, мультфильм, 3D BDRip 1080p, OverUnder]

Рейтинг 3D:
1 голосов
8.0
Рейтинг фильма:
1 голосов
8.0
 
Вы должны быть авторизированы,
чтобы ставить оценки


Вольт в 3Д
Bolt in 3D- Год выпуска: 2008
Страна: США, Walt Disney Pictures
Жанр: Комедия, семейный, мультфильм
Продолжительность: 01:36:21
Перевод: Профессиональный (полное дублирование) + Оригинал
-Режиссеры: Байрон Ховард, Крис Уильямс / Byron Howard, Chris Williams
Роли озвучивали: Джон Траволта, Майли Сайрус, Сьюзи Эссман, Марк Уолтон, Малкольм МакДауэлл, Джеймс Липтон, Грег Джерманн, Дидрих Бадер, Ник Свардсон, Жан-Поль Ману
Роли дублировали: Владимир Вдовиченков, Маша Иващенко, Анжела Белянская, Леонид Барац, Владимир Майсурадзе и др.
-Описание: Пес по кличке «Вольт» всю жизнь снимается в телевизионном сериале, где его герой — суперпес — спасает человечество, используя свои необычайные способности. Сам Вольт свято верит в собственную неуязвимость, невероятную силу, и умение летать. Когда же судьба забрасывает его в полный опасностей Большой Город, он все еще думает, что это — лишь очередной эпизод телесериала…-Формат 3D: OverUnder / Вертикальная стереопара - -

Mediainfo

Format : Matroska
File size : 7.81 GiB
Duration : 1h 36mn
Overall bit rate : 11.6 Mbps
Encoded date : UTC 2010-10-11 09:13:06
Writing application : mkvmerge v2.9.7 ('Tenderness') built on Jul 1 2009 18:43:35
Writing library : libebml v0.7.7 + libmatroska v0.8.1
Cover : Yes / Yes / Yes
Video
ID : 1
Format : AVC
Format/Info : Advanced Video Codec
Format profile : High@L5.0
Format settings, CABAC : Yes
Format settings, ReFrames : 4 frames
Muxing mode : Container profile=Unknown@5.0
Codec ID : V_MPEG4/ISO/AVC
Duration : 1h 36mn
Bit rate : 9 216 Kbps
Width : 1 920 pixels
Height : 2 104 pixels
Display aspect ratio : 0.913
Frame rate : 23.976 fps
Color space : YUV
Chroma subsampling : 4:2:0
Bit depth : 8 bits
Scan type : Progressive
Bits/(Pixel*Frame) : 0.095
Stream size : 6.20 GiB (79%)
Writing library : x264 core 105 r1732 2b04482
Encoding settings : cabac=1 / ref=4 / deblock=1:-2:-2 / analyse=0x3:0x113 / me=umh / subme=7 / psy=1 / psy_rd=1.00:0.15 / mixed_ref=1 / me_range=16 / chroma_me=1 / trellis=2 / 8x8dct=1 / cqm=0 / deadzone=21,11 / fast_pskip=1 / chroma_qp_offset=-3 / threads=6 / sliced_threads=0 / nr=0 / decimate=1 / interlaced=0 / constrained_intra=0 / bframes=6 / b_pyramid=0 / b_adapt=2 / b_bias=0 / direct=3 / weightb=1 / open_gop=0 / weightp=2 / keyint=250 / keyint_min=23 / scenecut=40 / intra_refresh=0 / rc_lookahead=40 / rc=crf / mbtree=1 / crf=18.0 / qcomp=0.60 / qpmin=10 / qpmax=51 / qpstep=4 / ip_ratio=1.40 / aq=1:1.00
Language : English
Audio #1
ID : 2
Format : AC-3
Format/Info : Audio Coding 3
Mode extension : CM (complete main)
Codec ID : A_AC3
Duration : 1h 36mn
Bit rate mode : Constant
Bit rate : 640 Kbps
Channel(s) : 6 channels
Channel positions : Front: L C R, Side: L R, LFE
Sampling rate : 48.0 KHz
Bit depth : 16 bits
Video delay : 1s 0ms
Stream size : 441 MiB (6%)
Title : AC3-EX 5.1 640 kbps Дублированный (Blu-ray CEE)
Language : Russian
Audio #2
ID : 3
Format : DTS
Format/Info : Digital Theater Systems
Format profile : ES
Codec ID : A_DTS
Duration : 1h 36mn
Bit rate mode : Constant
Bit rate : 1 510 Kbps
Channel(s) : 6 channels
Channel positions : Front: L C R, Side: L R, LFE
Sampling rate : 48.0 KHz
Bit depth : 24 bits
Video delay : 1s 0ms
Stream size : 1.02 GiB (13%)
Title : DTS-ES 5.1 1536 kbps
Language : English
Menu
00:00:00.000 : en:Начало
00:02:31.651 : en:5 лет спустя
00:11:00.660 : en:Микрофон-пушка
00:13:47.201 : en:Защищая Пенни
00:19:19.950 : en:Неожиданный поворот
00:24:18.874 : en:Посылка пришла
00:27:14.383 : en:"Я знаю этого пса"
00:29:48.703 : en:Знакомство с Миттенами
00:35:25.832 : en:Дорожное путешествие
00:42:09.569 : en:Рино!
00:51:41.974 : en:Большой побег
01:01:58.339 : en:Как быть собакой
01:08:16.008 : en:"На растоянии одной вафли"
01:13:02.711 : en:Соавторы
01:18:53.061 : en:Огонь!
01:29:36.830 : en:Финальные титры

Скриншоты


Качество: 3D BDRip 1080p
Формат: MKV
Видео: MPEG4 Video (H264) 1920x2104 23.98fps ~9216 Kbps
Аудио #1: Russian AC3, 640 Кбит/с, 48 kHz (6 ch) Дублированный (Blu-ray CEE)
Аудио #2: English DTS, 1510 Kbps Кбит/с, 48 kHz (6 ch)
Благодарности релизеру (2)

Торрент:

Статус:

Размер:

Зарегистрирован   [ 2010-10-13 08:36 ]

проверено

7.81 GB