Торренты   
 
 


Годзилла / Godzilla (Гарет Эдвардс) [2014 г., Anamorph OverUnder]

Рейтинг 3D:
22 голосов
6.3
Рейтинг фильма:
28 голосов
6.2
 
Вы должны быть авторизированы,
чтобы ставить оценки


Годзилла / Godzilla Год выпуска: 2014
Страна: США, Япония (Warner Bros. Pictures, Legendary Pictures)
Жанр: фантастика, боевик, триллер
Продолжительность: 02:03:07
Перевод: Профессиональный (полное дублирование) iTunes Russia
Режиссер: Гарет Эдвардс
В ролях: Аарон Тейлор-Джонсон, Брайан Крэнстон, Элизабет Олсен, Жюльет Бинош, Дэвид Стрэтэйрн, Кен Ватанабе, Салли Хокинс, Эл Сапьенза, Брайан Маркинсон, Ричард Т. Джонс
Описание: Человечество случайно разбудило гигантское древнее существо, что повлекло за собой ужасающие последствия…
Качество: BDrip
Контейнер: MKV
Формат 3D: Anamorph OverUnder / Вертикальная анаморфная стереопара
Порядок ракурсов: левый ракурс первый
Видео кодек: x264
Аудио кодек: AC-3
Видео: AVC, High@L4.1, 1920х1080, 23,976 кадра/сек, 5540 Кбит/сек
Аудио:
48 kHz, AC3 Dolby Digital, 5/1 ch, ~384.00 kbps avg |Russian| |Дубляж, iTunes Russia|
48 kHz, AC3 Dolby Digital, 5/1 ch, ~640.00 kbps avg |English|
Cубтитры:Russian (Forced, iTunes), Russian (iTunes), Ukrainian (Forced, iTunes), Ukrainian (iTunes)

Скриншоты

Media Info

Общее
Уникальный идентификатор : 188246904490102926590213816315794038485 (0x8D9F08F7B2A6A2788A18CE65B34E1ED5)
Полное имя : H:\Source\Godzilla.3D.2014.BDrip.Half.OU.x264.AC3.(itsamna).mkv
Формат : Matroska
Версия формата : Version 4 / Version 2
Размер файла : 5,76 Гбайт
Продолжительность : 2 ч. 3 м.
Общий поток : 6698 Кбит/сек
Название фильма : Godzilla (2014) rip by itsamna aka StarStranger (release 3D-RuGroup)
Дата кодирования : UTC 2014-08-27 14:07:03
Программа кодирования : mkvmerge v6.8.0 ('Theme for Great Cities') 32bit built on Mar 2 2014 21:27:07
Библиотека кодирования : libebml v1.3.0 + libmatroska v1.4.1
Видео
Идентификатор : 1
Формат : AVC
Формат/Информация : Advanced Video Codec
Профиль формата : High@L4.1
Параметр CABAC формата : Да
Параметр ReFrames формата : 4 кадра
Идентификатор кодека : V_MPEG4/ISO/AVC
Продолжительность : 2 ч. 3 м.
Битрейт : 5540 Кбит/сек
Ширина : 1920 пикселей
Высота : 1080 пикселей
Соотношение сторон : 16:9
Режим частоты кадров : Постоянный
Частота кадров : 23,976 кадра/сек
Цветовое пространство : YUV
Субдискретизация насыщенности : 4:2:0
Битовая глубина : 8 бит
Тип развёртки : Прогрессивная
Бит/(Пиксели*Кадры) : 0.111
Размер потока : 4,76 Гбайт (83%)
Библиотека кодирования : x264 core 130 r2273 b3065e6
Настройки программы : cabac=1 / ref=4 / deblock=1:-3:-3 / analyse=0x3:0x133 / me=umh / subme=10 / psy=1 / psy_rd=1.00:0.15 / mixed_ref=1 / me_range=32 / chroma_me=1 / trellis=2 / 8x8dct=1 / cqm=0 / deadzone=21,11 / fast_pskip=0 / chroma_qp_offset=-3 / threads=12 / lookahead_threads=2 / sliced_threads=0 / nr=0 / decimate=1 / interlaced=0 / bluray_compat=0 / constrained_intra=0 / bframes=8 / b_pyramid=2 / b_adapt=2 / b_bias=0 / direct=3 / weightb=1 / open_gop=0 / weightp=2 / keyint=250 / keyint_min=23 / scenecut=40 / intra_refresh=0 / rc_lookahead=60 / rc=crf / mbtree=1 / crf=17.0 / qcomp=0.60 / qpmin=0 / qpmax=69 / qpstep=4 / vbv_maxrate=50000 / vbv_bufsize=62500 / crf_max=0.0 / nal_hrd=none / ip_ratio=1.40 / aq=1:0.90
Default : Да
Forced : Нет
Аудио #1
Идентификатор : 2
Формат : AC-3
Формат/Информация : Audio Coding 3
Расширение режима : CM (complete main)
Параметр Endianness формата : Big
Идентификатор кодека : A_AC3
Продолжительность : 2 ч. 3 м.
Вид битрейта : Постоянный
Битрейт : 384 Кбит/сек
Каналы : 6 каналов
Расположение каналов : Front: L C R, Side: L R, LFE
Частота : 48,0 КГц
Битовая глубина : 16 бит
Метод сжатия : С потерями
Размер потока : 338 Мбайт (6%)
Заголовок : AC3 5.1 @ 384 kbps - DUB, iTunes
Язык : Russian
Default : Да
Forced : Нет
Аудио #2
Идентификатор : 3
Формат : AC-3
Формат/Информация : Audio Coding 3
Расширение режима : CM (complete main)
Параметр Endianness формата : Big
Идентификатор кодека : A_AC3
Продолжительность : 2 ч. 3 м.
Вид битрейта : Постоянный
Битрейт : 640 Кбит/сек
Каналы : 6 каналов
Расположение каналов : Front: L C R, Side: L R, LFE
Частота : 48,0 КГц
Битовая глубина : 16 бит
Метод сжатия : С потерями
Размер потока : 564 Мбайт (10%)
Язык : English
Default : Нет
Forced : Нет
Текст #1
Идентификатор : 4
Формат : UTF-8
Идентификатор кодека : S_TEXT/UTF8
Идентификатор кодека/Информация : UTF-8 Plain Text
Заголовок : Forced
Язык : Russian
Default : Да
Forced : Нет
Текст #2
Идентификатор : 5
Формат : UTF-8
Идентификатор кодека : S_TEXT/UTF8
Идентификатор кодека/Информация : UTF-8 Plain Text
Язык : Russian
Default : Нет
Forced : Нет
Текст #3
Идентификатор : 6
Формат : UTF-8
Идентификатор кодека : S_TEXT/UTF8
Идентификатор кодека/Информация : UTF-8 Plain Text
Заголовок : Forced
Язык : Ukrainian
Default : Нет
Forced : Нет
Текст #4
Идентификатор : 7
Формат : UTF-8
Идентификатор кодека : S_TEXT/UTF8
Идентификатор кодека/Информация : UTF-8 Plain Text
Язык : Ukrainian
Default : Нет
Forced : Нет
Меню
00:00:00.000 : en:1
00:09:20.000 : en:2
00:19:00.000 : en:3
00:30:21.000 : en:4
00:39:05.000 : en:5
00:49:38.000 : en:6
00:59:21.000 : en:7
01:09:44.000 : en:8
01:19:04.000 : en:9
01:29:49.000 : en:10
01:40:06.000 : en:11
01:52:06.000 : en:12
01:56:01.000 : en:13
--Релиз группы:

Проверено на встроенном плейере ТВ LG 42LW4500
--
Благодарности релизеру (30)

Торрент:

Статус:

Размер:

Зарегистрирован   [ 2014-08-27 21:27 ]

проверено

5.76 GB

 
 Мнение о фильме (10)





3д, неплохо, спасибо за релиз. Но я не готов видеть Годзиллу таким... Увидел существо, выключил сразу... Может быть, как нибудь... Но просто Шаг вперед еще не просмотрен, я пожалуй его...
 

Долго ждал когда появится хоть какой-то смысл или логика в этом фильме - не дождался... Фильмец на раз, ради любопытства глянуть можно... Но туууупоооой
 

сергей111,
Первое существо был ГНУС, не Годзилла. Годзилла позже появляется. :)
 

Марат, спасибо. Посмотрю сегодня))) Нет, прямо сейчас!)
P.S. Мне понравился ШАГ ВПЕРЕД, но третий лучше).
 

Сделайте crop !!!
 

Фильм откровенно нудный. Прошлая Годзилла была далеко не супер, но в сравнении с этой - просто шедевр.
3D убогое.
 

нафига его сняли? не понятно?
 

Унылое Г
 

Нормальный фильм,в кинотеатре смотрелось отлично .
 

Отстой отстойный, к тому же ремейк японского "Годзила и разрушитель" двадцатилетней давности. Такое надо в описании указывать. Что оригинал отстой, что ремейк.