Торренты   
 
 


Аватар 3D (ЭКРАНКА!!!) / Avatar 3D (Джеймс Кэмерон) [2009 г., Боевик, приключения, фантастика, OverUnder]

Аватар 3D / Avatar 3D
Год выпуска: 2009
Страна: США, Великобритания
Жанр: Боевик, приключения, фантастика
Продолжительность: 02:37:07
Перевод: Профессиональный (полное дублирование)
Режиссер: Джеймс Кэмерон
В ролях: Сэм Уортингтон, Зои Салдана, Сигурни Уивер, Стивен Лэнг, Джоэль Мур, Джованни Рибизи, Мишель Родригес, Лас Алонсо, Уэс Студи, Си Си Эйч Паундер
Описание: Джейк Салли — бывший морской пехотинец, прикованный к инвалидному креслу. Несмотря на немощное тело, Джейк в душе по-прежнему остается воином. Он получает задание совершить путешествие в несколько световых лет к базе землян на планете Пандора, где корпорации добывают редкий минерал, имеющий огромное значение для выхода Земли из энергетического кризиса.
Доп. информация:
По умолчанию звук русский, субтитры Russian Forced. Синх звука с видео немного страдает, по моим расчётам не более чем на одну десятую секунды десинх.

Настройка для мониторов Zalman

Я смотрю на мониторе Zalman через Media Player Classic:
Заходим в Options->External Filters
Add Filter->3dtv.at Stereo Transformation, ставим точку prefer. Если фильтра нет - ставим Stereoscopic Player.
Перезапускаем плеер.
Теперь Filters->3dtv.at Stereo Transformation. Output: Row Interlaced Right top, Width:1920 Height:792. Затем закрываем опции фильтра, VideoFrame->Normal. Разрешение стоит выбирать самому. Главное сохранять аспект, напомню Aspect=Width/Height.
Субтитры: вырубаем VobSub т.к. имеет свойство вешать... В опциях плеера Subtitles->Enable.
Как другие режимы настраивать не знаю.
Внимание: может я просто не умею работать с Stereoscopic Player, но я там не смог переключать аудио, и субтитры, и вообще субтитры мне почему-то он не хотел показывать. У меня ADSL модем, следовательно скорость раздачи "превосходная".

Тем кто хочет подключить дополнительное медиа

Китайцы что-то нашаманили. Оригинальный звук не синхронен с экранкой если даже выставить задержку. Не нашел настроек скорости звука.
Был выбор пересжать видео, или пересжать звук, выбрал второе.
Время видео относительно оригинального в 1.000965 раз медленнее, или в 0.999036 раз быстрее.
Соответственно если оригинальный звук 48000 Hz тогда звук данного видео получается если не ресэмплить видео и просто сказать что звук 48046.791 Hz.
Если оригинальный звук сделать так, что он будет скоростью как данное видео, то чтобы стал синх нужно выставить задержку 1047.91 ms.
Формат 3d: OverUnder
Видео:
Китайская 3D экранка. AVC (Advanced Video Codec), 1280x1056, 29.97fps, 14.3 Mbps
Аудио:
DTS, English 1536 kbps.
DTS, Russian 768 kbps.
Субтитры (srt формат):
English Forced
English Full
Russian Forced
Russian Full

MediaInfo

Код:
General
Complete name                    : D:\AVATAR.3D.Stereoscopic.Above.Below.2009.AVC.AC3-YZX.mkv
Format                           : Matroska
File size                        : 19.1 GiB
Duration                         : 2h 41mn
Overall bit rate                 : 16.9 Mbps
Encoded date                     : UTC 2010-10-31 09:17:17
Writing application              : mkvmerge v4.3.0 ('Escape from the Island') сборка от Sep  5 2010 10:30:51
Writing library                  : libebml v1.0.0 + libmatroska v1.0.0
Video
ID                               : 1
Format                           : AVC
Format/Info                      : Advanced Video Codec
Format profile                   : Main@L4.0
Format settings, CABAC           : No
Format settings, ReFrames        : 2 frames
Format settings, GOP             : M=1, N=32
Muxing mode                      : Header stripping
Codec ID                         : V_MPEG4/ISO/AVC
Duration                         : 2h 41mn
Bit rate mode                    : Variable
Bit rate                         : 14.3 Mbps
Width                            : 1 280 pixels
Height                           : 1 056 pixels
Display aspect ratio             : 1.212
Frame rate                       : 29.970 fps
Color space                      : YUV
Chroma subsampling               : 4:2:0
Bit depth                        : 8 bits
Scan type                        : Progressive
Bits/(Pixel*Frame)               : 0.353
Stream size                      : 16.1 GiB (85%)
Title                            : Avatar 3D
Language                         : Chinese
Color primaries                  : BT.709-5, BT.1361, IEC 61966-2-4, SMPTE RP177
Transfer characteristics         : BT.709-5, BT.1361
Matrix coefficients              : BT.709-5, BT.1361, IEC 61966-2-4 709, SMPTE RP177
Audio #1
ID                               : 6
Format                           : DTS
Format/Info                      : Digital Theater Systems
Muxing mode                      : Header stripping
Codec ID                         : A_DTS
Duration                         : 2h 41mn
Bit rate mode                    : Constant
Bit rate                         : 1 510 Kbps
Channel(s)                       : 6 channels
Channel positions                : Front: L C R, Side: L R, LFE
Sampling rate                    : 48.0 KHz
Bit depth                        : 24 bits
Video delay                      : -200ms
Stream size                      : 1.70 GiB (9%)
Title                            : English
Language                         : English
Audio #2
ID                               : 7
Format                           : DTS
Format/Info                      : Digital Theater Systems
Muxing mode                      : Header stripping
Codec ID                         : A_DTS
Duration                         : 2h 41mn
Bit rate mode                    : Constant
Bit rate                         : 755 Kbps
Channel(s)                       : 6 channels
Channel positions                : Front: L C R, Side: L R, LFE
Sampling rate                    : 48.0 KHz
Bit depth                        : 24 bits
Video delay                      : -200ms
Stream size                      : 872 MiB (4%)
Title                            : Russian
Language                         : Russian
Text #1
ID                               : 2
Format                           : UTF-8
Codec ID                         : S_TEXT/UTF8
Codec ID/Info                    : UTF-8 Plain Text
Title                            : Eng Forced
Language                         : English
Text #2
ID                               : 3
Format                           : UTF-8
Codec ID                         : S_TEXT/UTF8
Codec ID/Info                    : UTF-8 Plain Text
Title                            : Eng Full
Language                         : English
Text #3
ID                               : 4
Format                           : UTF-8
Codec ID                         : S_TEXT/UTF8
Codec ID/Info                    : UTF-8 Plain Text
Title                            : Rus Forced
Language                         : Russian
Text #4
ID                               : 5
Format                           : UTF-8
Codec ID                         : S_TEXT/UTF8
Codec ID/Info                    : UTF-8 Plain Text
Title                            : Rus Full
Language                         : Russian

Скриншоты





AVATAR.3D.Stereoscopic.Above.Below.2009.AVC.AC3-YZX.mkv.torrent
Торрент: Не зарегистрирован

Скачать

96 KB

Добавлен: 2010-10-31 16:19
Скачано: 1995 раз  [ Список скачавших ]
   
Комментарии:





http://torrents3d.ru/viewtopic.php?t=197
смысла маловато - скоро будет бд, да и дтс - не самое важное в камрипе, который тошно смотреть дальше первых 5 минут..
 

Я всё это понимаю, просто иначе я зря потратил 5 дней, раз уж сделал - выложил. А пока ждём бд рип, у меня всёравно оно будет лежать.
 

о иначе я зря потратил 5 дней,
хороший подход, угробил своё время - угробь и чужое, чтоб не так обидно было :)
 

Да это пол беды.
Теперь придется еще неделю потратить, чтобы такой "скромный" объемчик хотя-бы одному личеру раздать.
 

Могу по кускам... две звуковые дорожки к китайской экранке 3D, 4 субтитров.
 

eugeniy
потратили бы вы свое время не на эту каку, а на рипы для тв 3Д. благодарных людей стало бы на порядок больше..........
 

http://torrents3d.ru/viewtopic.php?t=658 Каждый день смотрю))) нравится очень качество, остается ждать релиза Blu-ray 3D.
 

Аnатоliy052
а я тут причем?
 

Acer GD245HQ - 23,6" монитор с поддержкой 3D можна сматрет
а какийе филми можна сматрет Acer GD245HQ 3D с NVIDIA 3D Vision kit
 

mehdi02
Любые стереопары и блюрей 3Д
 

Sraker
а также - анаглиф и простое 2д :) короче - ВСЕ
 

Злую идею воплощаю: пересжимаю видео в от 4 до 5 гб, с поправкой синхронизации к оригинальному звуку. Качество вроде слабо страдает, такчто посмотрим. Однако у меня сжатое лагует... может зря?) кодеком H.264 жму, а он не слабый, в плане нагрузки на CPU.
 

Господа мож кто нибудь накинет русскую дорожку на вот такой релиз???
http://www.1-hd.tv/details.php?id=3579
 

Ну вот и 3Д БлюРей вышел, все экранки пора прикрывать чтоб людей не путать.
 

Топик был перенесен из форума Фильмы HD в форум Архив

Zagruzin