Торренты   
 
 

 

Сезон охоты / Open Season [2006, BDrip, half1080p, Anamorph OverUnder]

Рейтинг 3D:
4 голосов
8.2
Рейтинг фильма:
5 голосов
8.2
 
Вы должны быть авторизированы,
чтобы ставить оценки


-Сезон охотыOpen Season
Год выпуска: 2006
Страна: США (Columbia Pictures, Sony Pictures Animation)
Жанр: Мультфильм, Комедия, Приключения, Семейный
Продолжительность: 01:26:14
Перевод: Профессиональный (дублированный) - Русский и Украинский
Режиссеры: Роджер Аллерс, Джилл Калтон, Энтони Стаччи / Roger Allers, Jill Culton, Anthony Stacchi-Роли дублировали / озвучивали: Буг - Фёдор Бондарчук / Мартин Лоуренс
Эллиот - Олег Куликович / Эштон Катчер
Шо - Михаил Боярский / Гэри Синиз
Бет - Ксения Бржезовская / Дебра Мессинг
МакСкуиззи - Максим Сергеев / Билли Коннолли
Бобби - / Джорджия Энджел
Райлли - Алексей Гурьев / Джон Фавро
Жизелль - Елена Шульман / Джейн Краковски
Горди - Анатолий Петров / Гордон Тутусис
Иэн - Валерий Соловьев / Патрик Варбертон
Мистер Вини - Вадим Романов / Коуди Камерон
Рози - Светлана Кузнецова / Ника Футтерман
Серж - Сергей Дьячков / Дэнни Манн
Охотник - Михаил Боярский / Джек МакГи
...............-Описание: Эллиот - ужасно болтливый и легкомысленный олень, у которого только одна проблема: как пережить охотничий сезон? А Буг - огромный и раздражительный медведь, у которого две проблемы: сезон охоты и... Эллиот! Если бы не толпы людей с ружьями, готовящихся наполнить их лес ураганной пальбой, эти двое никогда бы не стали иметь друг с другом никакого дела. Но выходит так, что только вместе они способны придумать, как им спасти свои шкуры. И вот, Бугаю и Эллиоту приходит в головы поистине блестящая идея. Так как лучшая защита - это нападение, они решают мобилизовать все зверье, чтобы превратить родную чащу в крепость и объявить двуногим злодеям партизанскую войну. Поистине, этот охотничий сезон будет полон сюрпризов. Для охотников - в первую очередь!--Премьера: 29 сентября 2006г
Бюджет: $85 000 000
Кассовые сборы: $189 088 279
DVD в США: $87 715 557

Проверено на встроенном плейере ТВ Samsung UE-C7000--Качество: BDrip
Контейнер: MKV
Формат 3D: Half OverUnder / Вертикальная анаморфная стереопара
Порядок ракурсов: левый ракурс первый-Видео: AVC / 23,976 fps / 1920х1080p / 11.0 Mbps
Аудио:
#1 - Русский / AC3 / 48 KHz / 5.1 ch / 640 Kbps
#2 - Украинский / AC3 / 48 KHz / 5.1 ch / 640 Kbps
#3 - Английский / AC3 / 48 KHz / 5.1 ch / 640 Kbps
Субтитры (Вшитые softsub SRT):
#1 - Русские Полные (by Ivan)
#2 - English Full

MediaInfo

General
UniqueID : 244258385673819010447462925010066014690 (0xB7C27433B00349DD8232563A437D01E2)
Complete name : F:\Downloads\OpenSeason(3D)2006.halfOU(Ash61).mkv
Format : Matroska
File size : 7.95 GiB
Duration : 1h 26mn
Overall bit rate : 13.2 Mbps
Movie name : Open Season (3D) 2006 (by Ash61)
Encoded date : UTC 2012-06-09 12:58:46
Writing application : mkvmerge v3.4.0 ('Rapunzel') сборка от May 15 2010 09:38:20
Writing library : libebml v0.8.0 + libmatroska v0.9.0
Cover : Yes / Yes
Video
ID : 1
Format : AVC
Format/Info : Advanced Video Codec
Format profile : High@L4.1
Format settings, CABAC : Yes
Format settings, ReFrames : 4 frames
Codec ID : V_MPEG4/ISO/AVC
Duration : 1h 26mn
Bit rate : 11.0 Mbps
Width : 1 920 pixels
Height : 1 080 pixels
Display aspect ratio : 16:9
Frame rate : 23.976 fps
Color space : YUV
Chroma subsampling : 4:2:0
Bit depth : 8 bits
Scan type : Progressive
Bits/(Pixel*Frame) : 0.222
Stream size : 6.64 GiB (83%)
Title : BDrip by Ash61
Writing library : x264 core 119 r2106 07efeb4
Encoding settings : cabac=1 / ref=4 / deblock=1:-3:-3 / analyse=0x3:0x113 / me=umh / subme=9 / psy=1 / psy_rd=1.00:0.15 / mixed_ref=1 / me_range=16 / chroma_me=1 / trellis=2 / 8x8dct=1 / cqm=0 / deadzone=21,11 / fast_pskip=1 / chroma_qp_offset=-3 / threads=3 / sliced_threads=0 / nr=0 / decimate=1 / interlaced=0 / bluray_compat=0 / constrained_intra=0 / bframes=6 / b_pyramid=2 / b_adapt=2 / b_bias=0 / direct=3 / weightb=1 / open_gop=0 / weightp=2 / keyint=250 / keyint_min=23 / scenecut=40 / intra_refresh=0 / rc_lookahead=60 / rc=crf / mbtree=1 / crf=17.0 / qcomp=0.70 / qpmin=0 / qpmax=69 / qpstep=4 / vbv_maxrate=40000 / vbv_bufsize=40000 / crf_max=0.0 / nal_hrd=none / frame-packing=4 / ip_ratio=1.40 / aq=1:0.70
Audio #1
ID : 2
Format : AC-3
Format/Info : Audio Coding 3
Mode extension : CM (complete main)
Codec ID : A_AC3
Duration : 1h 26mn
Bit rate mode : Constant
Bit rate : 640 Kbps
Channel(s) : 6 channels
Channel positions : Front: L C R, Side: L R, LFE
Sampling rate : 48.0 KHz
Bit depth : 16 bits
Compression mode : Lossy
Stream size : 395 MiB (5%)
Title : Дубляж
Language : Russian
Audio #2
ID : 3
Format : AC-3
Format/Info : Audio Coding 3
Mode extension : CM (complete main)
Codec ID : A_AC3
Duration : 1h 26mn
Bit rate mode : Constant
Bit rate : 640 Kbps
Channel(s) : 6 channels
Channel positions : Front: L C R, Side: L R, LFE
Sampling rate : 48.0 KHz
Bit depth : 16 bits
Compression mode : Lossy
Stream size : 395 MiB (5%)
Title : Дубляж
Language : Ukrainian
Audio #3
ID : 4
Format : AC-3
Format/Info : Audio Coding 3
Mode extension : CM (complete main)
Codec ID : A_AC3
Duration : 1h 26mn
Bit rate mode : Constant
Bit rate : 640 Kbps
Channel(s) : 6 channels
Channel positions : Front: L C R, Side: L R, LFE
Sampling rate : 48.0 KHz
Bit depth : 16 bits
Compression mode : Lossy
Stream size : 395 MiB (5%)
Title : Original
Language : English
Text #1
ID : 5
Format : UTF-8
Codec ID : S_TEXT/UTF8
Codec ID/Info : UTF-8 Plain Text
Title : By Ivan
Language : Russian
Text #2
ID : 6
Format : UTF-8
Codec ID : S_TEXT/UTF8
Codec ID/Info : UTF-8 Plain Text
Language : English
Menu
00:00:00.000 : en:00:00:00.000
00:05:59.985 : en:00:05:59.985
00:09:12.969 : en:00:09:12.969
00:16:57.016 : en:00:16:57.016
00:21:28.704 : en:00:21:28.704
00:23:41.837 : en:00:23:41.837
00:28:17.779 : en:00:28:17.779
00:33:53.615 : en:00:33:53.615
00:38:15.752 : en:00:38:15.752
00:45:34.023 : en:00:45:34.023
00:50:20.726 : en:00:50:20.726
00:56:51.617 : en:00:56:51.617
01:02:02.552 : en:01:02:02.552
01:07:43.601 : en:01:07:43.601
01:12:14.330 : en:01:12:14.330
01:14:59.120 : en:01:14:59.120

Скриншоты

Cover & Label


14.06.2012 - Релиз обновлён - видео заменено на BDrip half1080p, добавлены субтитры и украинская дорога.
Желающие, скачайте заново торрент-файл.
Благодарности релизеру (12)

Торрент:

Статус:

Размер:

Зарегистрирован   [ 2012-06-14 16:47 ]

проверено

7.95 GB