Торренты   
 
 

 

Рождественская история / A Christmas Carol (Роберт Земекис) [2009 г., фэнтези, драма, семейный, мультфильм, 1080р, OverUnder]

Рейтинг 3D:
111 голосов
8.5
Рейтинг фильма:
111 голосов
8.4
 
Вы должны быть авторизированы,
чтобы ставить оценки


Рождественская история / A Christmas Carol
Год выпуска: 2009
Страна: США
Жанр: фэнтези, драма, семейный, мультфильм
Продолжительность: 01:35:48
Перевод: Профессиональный (полное дублирование)
Режиссер: Роберт Земекис
В ролях: Джим Керри, Стив Валентайн, Дэрил Сабара, Сэйдж Райан, Эмбер Гейни Миде, Райан Очоа, Бобби Пейдж, Рон Боттитта, Сэмми Ханратти, Джулиан Холлоуэй
Описание: Это викторианская поучительная история о старом и ожесточившемся скупердяе Эбенезере Скрудже, который в течение одной ночи переживает испытание глубокого очищения. Мистер Скрудж - финансист/денежный меняла, который посвятил всю свою жизнь накоплению богатства. Он презирает всё, кроме денег, включая дружбу, любовь и рождественские праздники.
Доп. информация: В торренте есть бонус. Бонус можно использовать как сэмпл. Скорость у меня не превосходная. В основном видео все 137818 кадров из 137818, в бонусе все 3674 из 3674. В бонусе на 2:07 замечено на некоторых кодеках рассыпание картинки.
Формат 3d: OverUnder (Right Image Top)
Видео: MPEG4 Video (H264) 1920x1600 23.98fps
Аудио: English DTS 48000Hz 6ch
Аудио: Russian Dolby AC3 48000Hz 6ch
Субтитры: Русские, английские, рипнутые из SUP на скорую руку в ASS, STR.

MediaInfo

Код:
General
Complete name                    : D:\A Christmas Carol 2009\A Christmas Carol 2009.mkv
Format                           : Matroska
File size                        : 8.38 GiB
Duration                         : 1h 35mn
Overall bit rate                 : 12.5 Mbps
Encoded date                     : UTC 2010-12-02 06:30:24
Writing application              : mkvmerge v3.4.0 ('Rapunzel') сборка от May 15 2010 09:38:20
Writing library                  : libebml v0.8.0 + libmatroska v0.9.0
Video
ID                               : 1
Format                           : AVC
Format/Info                      : Advanced Video Codec
Format profile                   : High@L5.0
Format settings, CABAC           : No
Format settings, ReFrames        : 4 frames
Format settings, GOP             : M=4, N=32
Codec ID                         : V_MPEG4/ISO/AVC
Duration                         : 1h 35mn
Bit rate                         : 10.1 Mbps
Width                            : 1 920 pixels
Height                           : 1 600 pixels
Display aspect ratio             : 1.200
Frame rate                       : 23.976 fps
Color space                      : YUV
Chroma subsampling               : 4:2:0
Bit depth                        : 8 bits
Scan type                        : Progressive
Bits/(Pixel*Frame)               : 0.137
Stream size                      : 6.77 GiB (81%)
Writing library                  : x264 core 104 r1713bm c276662
Encoding settings                : cabac=0 / ref=3 / deblock=0:-1:-1 / analyse=0x3:0x113 / me=hex / subme=7 / psy=1 / psy_rd=1.00:0.15 / mixed_ref=1 / me_range=16 / chroma_me=1 / trellis=1 / 8x8dct=1 / cqm=0 / deadzone=21,11 / fast_pskip=1 / chroma_qp_offset=-3 / threads=3 / sliced_threads=0 / nr=0 / decimate=1 / interlaced=0 / constrained_intra=0 / bframes=3 / b_pyramid=2 / b_adapt=1 / b_bias=0 / direct=1 / weightb=0 / open_gop=0 / weightp=0 / keyint=250 / keyint_min=23 / scenecut=40 / intra_refresh=0 / rc_lookahead=40 / rc=crf / mbtree=1 / crf=18.0 / qcomp=0.60 / qpmin=10 / qpmax=51 / qpstep=4 / ip_ratio=1.40 / aq=1:1.00
Language                         : English
Audio #1
ID                               : 2
Format                           : DTS
Format/Info                      : Digital Theater Systems
Codec ID                         : A_DTS
Duration                         : 1h 35mn
Bit rate mode                    : Constant
Bit rate                         : 1 510 Kbps
Channel(s)                       : 6 channels
Channel positions                : Front: L C R, Side: L R, LFE
Sampling rate                    : 48.0 KHz
Bit depth                        : 24 bits
Stream size                      : 1.01 GiB (12%)
Language                         : English
Audio #2
ID                               : 3
Format                           : AC-3
Format/Info                      : Audio Coding 3
Mode extension                   : CM (complete main)
Codec ID                         : A_AC3
Duration                         : 1h 35mn
Bit rate mode                    : Constant
Bit rate                         : 640 Kbps
Channel(s)                       : 6 channels
Channel positions                : Front: L C R, Side: L R, LFE
Sampling rate                    : 48.0 KHz
Bit depth                        : 16 bits
Stream size                      : 439 MiB (5%)
Language                         : Russian
Text #1
ID                               : 4
Format                           : UTF-8
Codec ID                         : S_TEXT/UTF8
Codec ID/Info                    : UTF-8 Plain Text
Language                         : English
Text #2
ID                               : 5
Format                           : ASS
Codec ID                         : S_TEXT/ASS
Codec ID/Info                    : Advanced Sub Station Alpha
Title                            : (Stereo)
Language                         : English
Text #3
ID                               : 6
Format                           : UTF-8
Codec ID                         : S_TEXT/UTF8
Codec ID/Info                    : UTF-8 Plain Text
Language                         : Russian
Text #4
ID                               : 7
Format                           : ASS
Codec ID                         : S_TEXT/ASS
Codec ID/Info                    : Advanced Sub Station Alpha
Title                            : (Stereo)
Language                         : Russian
Text #5
ID                               : 8
Format                           : UTF-8
Codec ID                         : S_TEXT/UTF8
Codec ID/Info                    : UTF-8 Plain Text
Title                            : Forced
Language                         : Russian
Text #6
ID                               : 9
Format                           : ASS
Codec ID                         : S_TEXT/ASS
Codec ID/Info                    : Advanced Sub Station Alpha
Title                            : Forced (Stereo)
Language                         : Russian

Скриншоты


Бонус: продолжительность 00:02:33
Видео: MPEG4 Video (H264) 1920x2160 23.98fps
Аудио: English Dolby AC3 48000Hz stereo
Субтитры: Русские, английские, рипнутые из SUP на скорую руку в ASS, STR.

MediaInfo

Код:
General
Complete name                    : D:\A Christmas Carol 2009\bonus.mkv
Format                           : Matroska
File size                        : 388 MiB
Duration                         : 2mn 33s
Overall bit rate                 : 21.2 Mbps
Encoded date                     : UTC 2010-12-02 07:16:18
Writing application              : mkvmerge v3.4.0 ('Rapunzel') сборка от May 15 2010 09:38:20
Writing library                  : libebml v0.8.0 + libmatroska v0.9.0
Video
ID                               : 1
Format                           : AVC
Format/Info                      : Advanced Video Codec
Format profile                   : High@L5.0
Format settings, CABAC           : No
Format settings, ReFrames        : 4 frames
Codec ID                         : V_MPEG4/ISO/AVC
Duration                         : 2mn 33s
Bit rate                         : 20.5 Mbps
Width                            : 1 920 pixels
Height                           : 2 160 pixels
Display aspect ratio             : 0.889
Frame rate                       : 23.976 fps
Color space                      : YUV
Chroma subsampling               : 4:2:0
Bit depth                        : 8 bits
Scan type                        : Progressive
Bits/(Pixel*Frame)               : 0.206
Stream size                      : 375 MiB (97%)
Writing library                  : x264 core 104 r1713bm c276662
Encoding settings                : cabac=0 / ref=3 / deblock=0:-1:-1 / analyse=0x3:0x113 / me=hex / subme=7 / psy=1 / psy_rd=1.00:0.15 / mixed_ref=1 / me_range=16 / chroma_me=1 / trellis=1 / 8x8dct=1 / cqm=0 / deadzone=21,11 / fast_pskip=1 / chroma_qp_offset=-3 / threads=3 / sliced_threads=0 / nr=0 / decimate=1 / interlaced=0 / constrained_intra=0 / bframes=3 / b_pyramid=2 / b_adapt=1 / b_bias=0 / direct=1 / weightb=0 / open_gop=0 / weightp=0 / keyint=250 / keyint_min=23 / scenecut=40 / intra_refresh=0 / rc_lookahead=40 / rc=crf / mbtree=1 / crf=18.0 / qcomp=0.60 / qpmin=10 / qpmax=51 / qpstep=4 / ip_ratio=1.40 / aq=1:1.00
Language                         : English
Audio
ID                               : 2
Format                           : AC-3
Format/Info                      : Audio Coding 3
Format profile                   : Dolby Digital
Mode extension                   : CM (complete main)
Codec ID                         : A_AC3
Duration                         : 2mn 33s
Bit rate mode                    : Constant
Bit rate                         : 320 Kbps
Channel(s)                       : 2 channels
Channel positions                : Front: L R
Sampling rate                    : 48.0 KHz
Bit depth                        : 16 bits
Stream size                      : 5.85 MiB (2%)
Language                         : English
Text #1
ID                               : 3
Format                           : UTF-8
Codec ID                         : S_TEXT/UTF8
Codec ID/Info                    : UTF-8 Plain Text
Language                         : Russian
Text #2
ID                               : 4
Format                           : ASS
Codec ID                         : S_TEXT/ASS
Codec ID/Info                    : Advanced Sub Station Alpha
Title                            : (Stereo)
Language                         : Russian

Скриншоты с выбранными субтитрами Rus (Stereo) (ASS)

Остальные раздачи этого фильма (6)
Благодарности релизеру (7)

Торрент:

Статус:

Размер:

Зарегистрирован   [ 2010-12-02 16:01 ]

проверено

8.76 GB

 
 Мнение о фильме (37)

Пред.  1, 2






Хотелось, чтобы при создании картин в 3D, авторы мультфильмов положили на свой рабочий стол книгу Рождественская история как за образец 3D.
 

У меня не качает(
 

Хороший фильм, раньше смотрели с семьей в 2D, и сейчас с удовольствием посмотрели!
 

Отличный мультфильм!!! 3D и сюжет на высоте. Смотрел фильм на одном дыхании. Советую всем. В коллекцию однозначно. Спасибо!!!
 

Мультик замечательный, заставляет задуматься.
 

От фильма двоякие впечатления. С одной стороны - ожидаешь от фильма с таким названием веселого рождественского сюжета, а вместо этого получаем рождественский мульт ужасов. Моя малявка убежала от экрана, когда увидела рожу привидения вместо дверной ручки. Явно не для семейного просмотра, маленьким детям почти наверняка будет страшно. Юмора - 0.
С другой стороны - анимация и 3d (объем шикарен, вечно что-то вылезает из экрана, то носы, то руки, то предметы) заставляют досмотреть фильм до конца.
 

3D не весь мульт,но больше половины,вылетов мало,но картинка класс.Советую смотреть.
 

Замечательный фильм! Ничуть не пожалел, что скачал. Ещё раз пересмотрю потом. А насчёт 3D: нормально
 

Не люблю смотреть мульты, но в 3D... ради спецэффектов... решил взглянуть. Был честно говоря поражен, как и 3D, так и сюжетом. Просто шедеврально! Смотреть всем!!!
 

Муть полная! хватило на 20 минут.
никакого праздничного настроения
 

качество супер ,мультик со смыслом и стоит посмотреть
 

Очень хорошее, глубокое 3d. Сам мульт интересный, но для детей младшего возраста, думаю что, мрачноват. Атмосфера не совсем радостная.
 

Такого унылого говна давно не смотрел. Ооооочень скучный мульт. Не осилил, хотя очень старался.
 

Как скачать?(
 

very good!
 

Отличный мультфильм для всей семьи!
 

Мой самый любимый мультфильм.Смотрел не отрываясь с большими глазами. )))))))))))))
 

Страница 2 из 2

Пред.  1, 2