Торренты   
 
 

 

IMAX. Приключение в Большом каньоне - Река в опасности 3D / Grand Canyon Adventure - River at Risk 3D (Greg MacGillivray) [2008 г.,720p, Документальный, Anamorph OverUnder]

Рейтинг 3D:
44 голосов
8.5
Рейтинг фильма:
43 голосов
8.0
 
Вы должны быть авторизированы,
чтобы ставить оценки


IMAX. Приключение в Большом каньоне - Река в опасности 3D / Grand Canyon Adventure - River at Risk 3D
Год выпуска: 2008
Страна: США
Жанр: Документальный / Живая природа
Продолжительность: 00:44:36
Перевод: Профессиональный (закадровый, одноголосый)
Режиссер: Greg MacGillivray
В ролях: Уэйд Дэвис, Никки Келли, Роберт Редфорд, Шена Ватахомиге
Описание: Мощный фильм от создателей «Эверест», рассказывающий об угрозе, нависшей над одним из главных пейзажных символов Америки.
Вы увидите великую реку Колорадо, которая напомнит нам о самой гнетущей современной проблеме окружающей среды – нарастающая нехватка пресной воды во всем мире. Присоединитесь к адвокатам, занимающимся защитой окружающей среды, - Роберту Ф. Кеннеди-мл. и Уэйду Дэвису, и их дочерям, путешествующим в глубину Большого Каньона вниз по течению реки, протекающей сквозь него. У вас участится пульс, когда вы увидите захватывающую поездку по реке через стремительные пороги и поразительные каньоны. С помощью сногсшибательных фотографий и съемок с воздуха новоявленные кинематографисты попытаются захватить всю красоту реки Колорадо и Большого Каньона.
Комментирует фильм – обладатель Оскара, актер, кинематографист и убежденный борец за сохранение окружающей среды Роберт Редфорд. Песни и музыку исполняет обладатель премии Грэмми оркестр Дэйва Мэттьюса. Этот фильм заставит вас проявлять больше уважения к рекам и воде, и попытается донести осознание того, что и обычные люди могут изменить нашу высыхающую планету к лучшему.
Качество: HDRip
Контейнер: MKV
Видео: AVC / 1280х1080p / 23,976 fps / 9600 kbps
Аудио [rus]: AC3 / 6ch / 640 Kbps / 48 KHz
Аудио [eng]: AC3 / 6 ch / 640 kbps / 48 KHz
Субтитры: внешние srt
Формат 3d: Anamorph OverUnder

mi

General
UniqueID : 191020006463080254251437232393577464980 (0x8FB51D736BAE07B7957B3EA309468494)
Complete name : F:\Downloads\Grand Canyon Adventure. River at Risk 3D.720р(MeGui)\Grand Canyon Adventure. River at Risk 3D.720р.mkv
Format : Matroska
File size : 3.39 GiB
Duration : 44mn 36s
Overall bit rate : 10.9 Mbps
Encoded date : UTC 2011-01-27 16:03:18
Writing application : mkvmerge v4.4.0 ('Die Wiederkehr') сборка от Oct 31 2010 21:52:48
Writing library : libebml v1.0.0 + libmatroska v1.0.0
Video
ID : 1
Format : AVC
Format/Info : Advanced Video Codec
Format profile : High@L4.0
Format settings, CABAC : Yes
Format settings, ReFrames : 4 frames
Codec ID : V_MPEG4/ISO/AVC
Duration : 44mn 36s
Bit rate : 9 600 Kbps
Width : 1 280 pixels
Height : 1 080 pixels
Display aspect ratio : 1.185
Frame rate : 23.976 fps
Color space : YUV
Chroma subsampling : 4:2:0
Bit depth : 8 bits
Scan type : Progressive
Bits/(Pixel*Frame) : 0.290
Stream size : 2.92 GiB (86%)
Writing library : x264 core 98 r1649 c54c47d
Encoding settings : cabac=1 / ref=3 / deblock=1:0:0 / analyse=0x3:0x113 / me=hex / subme=7 / psy=1 / psy_rd=1.00:0.00 / mixed_ref=1 / me_range=16 / chroma_me=1 / trellis=1 / 8x8dct=1 / cqm=0 / deadzone=21,11 / fast_pskip=1 / chroma_qp_offset=-2 / threads=3 / sliced_threads=0 / nr=0 / decimate=1 / interlaced=0 / constrained_intra=0 / bframes=3 / b_pyramid=2 / b_adapt=1 / b_bias=0 / direct=1 / weightb=1 / weightp=2 / keyint=250 / keyint_min=25 / scenecut=40 / intra_refresh=0 / rc_lookahead=40 / rc=2pass / mbtree=1 / bitrate=9600 / ratetol=1.0 / qcomp=0.60 / qpmin=10 / qpmax=51 / qpstep=4 / cplxblur=20.0 / qblur=0.5 / ip_ratio=1.40 / aq=1:1.00
Language : English
Audio #1
ID : 2
Format : AC-3
Format/Info : Audio Coding 3
Mode extension : CM (complete main)
Codec ID : A_AC3
Duration : 44mn 36s
Bit rate mode : Constant
Bit rate : 640 Kbps
Channel(s) : 6 channels
Channel positions : Front: L C R, Side: L R, LFE
Sampling rate : 48.0 KHz
Bit depth : 16 bits
Compression mode : Lossy
Stream size : 204 MiB (6%)
Language : Russian
Audio #2
ID : 3
Format : AC-3
Format/Info : Audio Coding 3
Mode extension : CM (complete main)
Codec ID : A_AC3
Duration : 44mn 36s
Bit rate mode : Constant
Bit rate : 640 Kbps
Channel(s) : 6 channels
Channel positions : Front: L C R, Side: L R, LFE
Sampling rate : 48.0 KHz
Bit depth : 16 bits
Compression mode : Lossy
Stream size : 204 MiB (6%)

Скриншоты



27.01.2011 - Релиз обновлён - добавлена русская дорожка!
Благодарности релизеру (2)

Торрент:

Статус:

Размер:

Зарегистрирован   [ 2011-01-27 22:33 ]

проверено

3.39 GB

 
Комментарии:





Вещь отличная, всем советую. Грамотная съемка объема, много видов природы (не только сам каньон), много поп-апа, а сцена с камерой закрепленной на лодке при спуске по порогам - находка для 3д.
 

Отличный фильм.
 

СПАСИБО ash61 !!! Понравилось, особенно пузыри в начале фильма !!!!!!!!
 

На здоровье, Кнопочка! Да, блеснули эффектом, за что мы и любим 3д!
 

Спуск по бурной речке начиная с 18й минуты и с 34й. Супер :) Вода в лицо.
 

Спасибо! Очень хороший и качественный фильм, заставляющий задуматься. В Америке даже индейцы играют в демократию, и имеют какой-то вес, коль смогли такое дело отстоять.
 

Посмотрел данный фильм напрямую с инета через приложение 3D от Самсунга. Очень понравился, а музыка ( в 5.1!) вообще великолепна. Просто не вериться, что сейчас такое возможно и на болванку писать не нужно.
 

amila, пожалуста подскажите как смотреть с инета без записывания ,у меня комп и дисплей с 3д ,пассивная поляризация ,все скачиваем ,но нет времени часто ,
 

фильм в начале порадовал красотой ,и эффектами ,но потом ,очень утомило чтение субтитров ,не успеваешь разглядеть картинку ,просто познавательное кино ,можно и без 3д посмотреть ,мне не понравилось хочется что б захватило ,ан нет стало на 15 минуте скучно .. а жаль
 

Сам фильм понравился. Чтение субтитров напрягает (или читать или смотреть). На встроенном в Samsung плеере AVI не пошло, пришлось конвертировать в MKV.
 

По мне любопытненько , но не интересненько. Хорошие виды, но сам фильм.. ну не любопытно мне что там с Колорадо твориться.
 

Пузыри действительно эффектные, спасибо)))
 

Ну я бы не сказал, че очень круто, но посмотреть стоит.
 

Фильм дерьтмовый, пожаленл, что скачал - не качайте
 

Фильм интересный, но 3Д не впечатлило, если только вначале, когда идут титры.
 

Отличный фильм. спасибо
 

Шикарный фильм , качество 3d тоже на высоте , не обязательно чтоб весь фильм в тебя что нибудь вылетало из экрана , но также важна глубина картинки . Жаль что съёмочная группа мало летала на вертолёте среди каньонов . Спасибо за релиз .