Торренты   
 
 


Ледниковый период 3: Эра динозавров 3д / Ice Age: Dawn of the Dinosaurs 3d (Carlos Saldanha, Mike Thurmeier) [2009 г., 720p, мультфильм, Anamorph OverUnder]

Рейтинг 3D:
Пока никто не голосовал
Рейтинг фильма:
Пока никто не голосовал
 
Вы должны быть авторизированы,
чтобы ставить оценки


Ледниковый период 3: Эра динозавров 3д / Ice Age: Dawn of the Dinosaurs 3d
Год выпуска: 2009
Страна: США
Жанр: комедия, приключения, семейный, мультфильм
Продолжительность: 1:34:01
Перевод: Профессиональный (полное дублирование)
Режиссер: Carlos Saldanha, Mike Thurmeier
Описание: К событиям «Ледникового периода 3» жизнь главных героев мультфильма претерпела некоторые изменения. Мамонты Манфред и Элли ожидают появления на свет своего детёныша; саблезубый тигр Диего впал в раздумье о том, не стал ли он слишком «мягкотелым» в компании своих друзей; ленивец Сид, бредя желанием создать собственное племя, решился украсть несколько яиц динозавра. Отправившись спасать Сида, друзья попадают в таинственный растительный мир, скрытый под толщами льда, где они сталкиваются с динозаврами и агрессивной окружающей средой, а так же знакомятся с охотником на динозавров — лаской по имени Бак.
Крысобелка Скрэт (который вновь случайным образом стал виной глобальной проблемы, открыв путь в мир динозавров) по-прежнему гоняется за своим орехом, но на этот раз у него появился конкурент — крысобелка Скрэтти, однако, одновременно с одержимой борьбой за орех, эти двое влюбляются друг в друга.
Доп. информация: Анаморф для 3д ТВ
На ТВ поменять ракурсы местами!!!
Качество: HDRip
Контейнер: MKV
Видео: AVC / 1280x1080p / 23.976 fps / 6100 kbps
Аудио: AC3 / 6 channels / 640 kbps / 48 KHz (русский) (Без оригинальной аудио дорожки!)
Формат 3d: Anamorph OverUnder

mi

General
Complete name : O:\Downloads\Ice Age 3D.anmf.mkv
Format : Matroska
File size : 4.43 GiB
Duration : 1h 34mn
Overall bit rate : 6 740 Kbps
Encoded date : UTC 2010-12-07 19:57:13
Writing application : mkvmerge v4.0.0 ('The Stars were mine') сборка от Jun 11 2010 23:24:27
Writing library : libebml v1.0.0 + libmatroska v1.0.0
Video
ID : 1
Format : AVC
Format/Info : Advanced Video Codec
Format profile : High@L4.0
Format settings, CABAC : Yes
Format settings, ReFrames : 4 frames
Codec ID : V_MPEG4/ISO/AVC
Duration : 1h 34mn
Bit rate : 6 100 Kbps
Width : 1 280 pixels
Height : 1 080 pixels
Display aspect ratio : 1.185
Frame rate : 23.976 fps
Color space : YUV
Chroma subsampling : 4:2:0
Bit depth : 8 bits
Scan type : Progressive
Bits/(Pixel*Frame) : 0.184
Stream size : 3.92 GiB (89%)
Writing library : x264 core 98 r1649 c54c47d
Encoding settings : cabac=1 / ref=3 / deblock=1:0:0 / analyse=0x3:0x113 / me=hex / subme=7 / psy=1 / psy_rd=1.00:0.00 / mixed_ref=1 / me_range=16 / chroma_me=1 / trellis=1 / 8x8dct=1 / cqm=0 / deadzone=21,11 / fast_pskip=1 / chroma_qp_offset=-2 / threads=3 / sliced_threads=0 / nr=0 / decimate=1 / interlaced=0 / constrained_intra=0 / bframes=3 / b_pyramid=2 / b_adapt=1 / b_bias=0 / direct=1 / weightb=1 / weightp=2 / keyint=250 / keyint_min=25 / scenecut=40 / intra_refresh=0 / rc_lookahead=40 / rc=2pass / mbtree=1 / bitrate=6100 / ratetol=1.0 / qcomp=0.60 / qpmin=10 / qpmax=51 / qpstep=4 / cplxblur=20.0 / qblur=0.5 / ip_ratio=1.40 / aq=1:1.00
Language : English
Audio
ID : 2
Format : AC-3
Format/Info : Audio Coding 3
Mode extension : CM (complete main)
Codec ID : A_AC3
Duration : 1h 34mn
Bit rate mode : Constant
Bit rate : 640 Kbps
Channel(s) : 6 channels
Channel positions : Front: L C R, Side: L R, LFE
Sampling rate : 48.0 KHz
Bit depth : 16 bits
Video delay : 24ms
Stream size : 430 MiB (9%)
Language : Russian

Скриншоты



Благодарности релизеру (0)

Торрент:

Статус:

Размер:

Зарегистрирован   [ 2010-12-08 00:34 ]

проверено

4.43 GB

 
Комментарии:

Пред.  1, 2






2 NOFX
Это анаморф, но наполовину! :) Просто я сжал разрешение не в два, а в 1,5 раза для минимизации потерь. И насчёт правильности пропорций Вы слегка ошиблись.
 

дайте скорости родные.дочки уже весь мозг проели--КОГДА У НАС БУДЕТ ЭТО В 3Д
 

Здравствуйте!!! если не трудно не сможите увеличить скорость раздачи а то мне срочно надо. За ранее спасибо!!!
 

LG 42lw4500 .Разрезал файл ,отказывается возпроизводить.Что может быть за проблема?
 

Yuragun, читали это - MKVmergeGUI ("народная" инструкция по основным операциям редактирования) ?
Если увидим МедиаИнфо, может что-то и сможем подсказать...
 

ash61
Здесь просто не стандарт, 720 и Анаморф (1280x1080), дурацкое сочетание, ни для проектора ни для ТВ не заточен и теряет в качестве по сравнению с обычным Анаморфом. Ещё и
На ТВ поменять ракурсы местами!!!
Если есть Анаморф 1080р и полноразмерный рип, этот лучше прикрыть. Во например твой же анаморф http://torrents3d.ru/viewtopic.php?t=1411 только там скрины слетели. ФАБовский тоже надо удалить, хотя другого варианта горизонтального анаморфа нет http://torrents3d.ru/viewtopic.php?t=1892
 

Я все вроде правильно делаю. Но просто порезал еще пару рипов сейчас на флэшку и они не показывают. Пишет неподдерживаемый формат.
 

Video: MPEG4 Video (H264) 1280x1080 23.98fps [Video]
Audio: Dolby AC3 48000Hz 6ch [Audio]
General
Unique ID : 233944073223811028883191730795613408725 (0xAFFFFD55FDA65DE0A1BC958AA7764DD5)
Complete name : D:\Загрузки\Ice Age 3D.anmf (1)-001.mkv
Format : Matroska
File size : 1.53 GiB
Duration : 30mn 4s
Overall bit rate : 7 265 Kbps
Encoded date : UTC 2012-07-25 07:24:56
Writing application : mkvmerge v5.7.0 ('The Whirlwind') built on Jul 8 2012 20:08:51
Writing library : libebml v1.2.3 + libmatroska v1.3.0
Video
ID : 1
Format : AVC
Format/Info : Advanced Video Codec
Format profile : High@L4.0
Format settings, CABAC : Yes
Format settings, ReFrames : 4 frames
Muxing mode : Header stripping
Codec ID : V_MPEG4/ISO/AVC
Duration : 30mn 4s
Bit rate : 6 480 Kbps
Nominal bit rate : 6 100 Kbps
Width : 1 280 pixels
Height : 1 080 pixels
Display aspect ratio : 1.185
Frame rate : 23.976 fps
Color space : YUV
Chroma subsampling : 4:2:0
Bit depth : 8 bits
Scan type : Progressive
Bits/(Pixel*Frame) : 0.196
Stream size : 1.36 GiB (89%)
Writing library : x264 core 98 r1649 c54c47d
Encoding settings : cabac=1 / ref=3 / deblock=1:0:0 / analyse=0x3:0x113 / me=hex / subme=7 / psy=1 / psy_rd=1.00:0.00 / mixed_ref=1 / me_range=16 / chroma_me=1 / trellis=1 / 8x8dct=1 / cqm=0 / deadzone=21,11 / fast_pskip=1 / chroma_qp_offset=-2 / threads=3 / sliced_threads=0 / nr=0 / decimate=1 / interlaced=0 / constrained_intra=0 / bframes=3 / b_pyramid=2 / b_adapt=1 / b_bias=0 / direct=1 / weightb=1 / weightp=2 / keyint=250 / keyint_min=25 / scenecut=40 / intra_refresh=0 / rc_lookahead=40 / rc=2pass / mbtree=1 / bitrate=6100 / ratetol=1.0 / qcomp=0.60 / qpmin=10 / qpmax=51 / qpstep=4 / cplxblur=20.0 / qblur=0.5 / ip_ratio=1.40 / aq=1:1.00
Language : English
Audio
ID : 2
Format : AC-3
Format/Info : Audio Coding 3
Mode extension : CM (complete main)
Muxing mode : Header stripping
Codec ID : A_AC3
Duration : 30mn 4s
Bit rate mode : Constant
Bit rate : 640 Kbps
Channel(s) : 6 channels
Channel positions : Front: L C R, Side: L R, LFE
Sampling rate : 48.0 KHz
Bit depth : 16 bits
Compression mode : Lossy
Delay relative to video : 24ms
Stream size : 138 MiB (9%)
Language : Russian
 

Yuragun, "Muxing mode : Header stripping"
Я ж не даром дал ссылку на инструкцию - там конкретно написано про сжатие заголовков...
Сергей, конечно пора уже удалять это старьё. :)
 

Извини и как это исправить?
 

Yuragun, в моей ссылке всё написано!
 

Прочитал,исправил. Спасибо !!! Будет мне уроком.Извиняюсь за флуд.
 

Топик был перенесен из форума Мультфильмы в форум Архив

Zagruzin
 

Страница 2 из 2

Пред.  1, 2