Торренты   
 
 


IMAX. На глубине 3д (Жизнь глубин) / Into the Deep 3D (Howard Hall) [1994 г., 720p, Документальный, Anamorph OverUnder]

IMAX. На глубине 3д (Жизнь глубин) / Into the Deep 3D
Год выпуска: 1994
Страна: США, Канада, Франция, Япония
Жанр: Документальный
Продолжительность: 00:34:20
Перевод: Отсутствует
Режиссер: Howard Hall
Композиторы: Micky Erbe, Maribeth Solomon
Комментарий: Kate Nelligan
Описание: «Жизнь глубин» переносит зрителей в захватывающее 3D-исследование жизни подводного мира. Впервые используя IMAX 3D-камеру под водой, удалось захватить картины уникальной морской жизни и великолепные подводные пейзажи. Зрители сами становится обитателями морского дна, открывая для себя калейдоскоп жизни в океане через призму технологии IMAX 3D.
Качество: HDRip
Контейнер: MKV
Видео: AVC / 1280х1080р / 23.976 fps / 10.8 Mbps
Аудио: AC3 / 6 channels / 448 kbps / 48 KHz
Формат 3d: Anamorph OverUnder

mi

General
Complete name : O:\Downloads\Into the Deep 3D.anmf.mkv
Format : Matroska
File size : 2.70 GiB
Duration : 34mn 20s
Overall bit rate : 11.3 Mbps
Encoded date : UTC 2010-12-08 22:17:11
Writing application : mkvmerge v4.0.0 ('The Stars were mine') сборка от Jun 11 2010 23:24:27
Writing library : libebml v1.0.0 + libmatroska v1.0.0
Video
ID : 1
Format : AVC
Format/Info : Advanced Video Codec
Format profile : High@L4.0
Format settings, CABAC : Yes
Format settings, ReFrames : 4 frames
Codec ID : V_MPEG4/ISO/AVC
Duration : 34mn 20s
Bit rate : 10.8 Mbps
Width : 1 280 pixels
Height : 1 080 pixels
Display aspect ratio : 1.185
Frame rate : 23.976 fps
Color space : YUV
Chroma subsampling : 4:2:0
Bit depth : 8 bits
Scan type : Progressive
Bits/(Pixel*Frame) : 0.326
Stream size : 2.54 GiB (94%)
Writing library : x264 core 98 r1649 c54c47d
Encoding settings : cabac=1 / ref=3 / deblock=1:0:0 / analyse=0x3:0x113 / me=hex / subme=7 / psy=1 / psy_rd=1.00:0.00 / mixed_ref=1 / me_range=16 / chroma_me=1 / trellis=1 / 8x8dct=1 / cqm=0 / deadzone=21,11 / fast_pskip=1 / chroma_qp_offset=-2 / threads=3 / sliced_threads=0 / nr=0 / decimate=1 / interlaced=0 / constrained_intra=0 / bframes=3 / b_pyramid=2 / b_adapt=1 / b_bias=0 / direct=1 / weightb=1 / weightp=2 / keyint=250 / keyint_min=25 / scenecut=40 / intra_refresh=0 / rc_lookahead=40 / rc=2pass / mbtree=1 / bitrate=10800 / ratetol=1.0 / qcomp=0.60 / qpmin=10 / qpmax=51 / qpstep=4 / cplxblur=20.0 / qblur=0.5 / ip_ratio=1.40 / aq=1:1.00
Language : English
Audio
ID : 2
Format : AC-3
Format/Info : Audio Coding 3
Mode extension : CM (complete main)
Codec ID : A_AC3
Duration : 34mn 20s
Bit rate mode : Constant
Bit rate : 448 Kbps
Channel(s) : 6 channels
Channel positions : Front: L C R, Side: L R, LFE
Sampling rate : 48.0 KHz
Bit depth : 16 bits
Stream size : 110 MiB (4%)
Language : English

Скриншоты



Into the Deep 3D.anmf.mkv.torrent
Торрент: Не зарегистрирован

Скачать

14 KB

Добавлен: 2010-12-09 03:01
Скачано: 2319 раз  [ Список скачавших ]
   
Комментарии:

1, 2  След.






Так красиво, ну Очень хочется !!!!!! и СПАСИБО за 3д ТВ !!!!!!! Ставлю...
 

Оперативно обнаружила! Умеренно красивый фильм. Вот завтра постараюсь выложить Under The Sea, насколько я помню он гораздо красивее. А далее последует Deep Sea In 3d. Тоже очень красивый. К тому же они будут 1080р и с переводом.
Ну а пока всем приятного просмотра этого фильма!
 

Оперативно обнаружила! Умеренно красивый фильм. Вот завтра постараюсь выложить Under The Sea, насколько я помню он гораздо красивее. А далее последует Deep Sea In 3d. Тоже очень красивый. К тому же они будут 1080р и с переводом.
Ну а пока всем приятного просмотра этого фильма!
Очень рада. Замечательно !!!
 

Бессонница или дальний часовой пояс?
 

Да нет. Просто Люблю ночь.
 

И я "сова" с детства.
 

Посмотрела, оч. понравилось. Хорошее 3D и вглубину и наружу - как и должно быть, даже без перевода классно !!!!!
 

Глянул сегодня отрывками и этот, и Under The Sea - как небо и земля! Ждите сегодня ночером настоящую красоту!
 

Не успеваю собирать! Благодарствую!!
 

http://torrents3d.ru/viewtopic.php?t=619 (Там вроде битрейт повыше)
http://torrents3d.ru/viewtopic.php?t=564
Можно уже сайт начинать структурировать по фильмам - сделать групповые темы по названию фильма (фильмы -> AVATAR -> AVATAR anaglif ; AVATAR 720р OverUnder; AVATAR CamRip и т.д.) - а в них разные форматы от анаглифа до блюрей ремукс - хорошая идея кстати - а то уже по общему поиску 9 страниц уже
 

1994 год?? аймакс? ты ничего не путаешь?ash61
 

2 neovad
Первая ссылка не подходит к ЮСБ ТВ (битрейт ни при чём!).
Вторая ссылка - совершенно другой фильм (я сам в этих аймаксовских фильмах путаюсь :) ). Этот фильм будет сегодня ночером.
2 Аnатоliy052
Нет, не путаю! Сам удивляюсь их прозорливости!
http://www.kinopoisk.ru/level/1/film/102584/
 

Аnатоliy052
Что тут удивительного? У меня куча фильмов в интерлейсе, многие от IMAX.
 

так выкидывай то чего нет на трекере - я сам завтра пираний востановленных выкину, а на следующей неделе - альфу и омегу (свежак - даже блю рея еще нету - тока в прокат недавно пошел)
 

Если анаглиф то не старайся-качество отстой!Я пару недель назад купил. :)
 

Нужно ждать выхода зарубежных релизов Пираньи и Альфы и Амеги в BD3D. Покупал и то и то
у нас в анаглифе, не впечатлило, очень серо)
neovad восстановленная Пиранья отличается от анаглифа по качеству в лучшую сторону?:)
 

Ну пиранью сам сегодня посмотрел - она изначально конверт так что особо восторгаться не следует - но я сам научился 100% синхронизировать (и очень быстро - быстрее чем могу в белорусии скачать исходники и отдать восстановленное) потоки 2D и 3D анаглиф версий так что сразу буду выкидывать стереопары. Если есть ссылки на хорошие 2D + анаглиф источники пишите в личку. Пока что из нового нашел:
- Альфа и омега
- территория тьмы
- забери мою душу
Есть еще и запас старых фильмов
Уже начинаю думать над созданием профессионального 2d - 3d конвертера и чувствую что вначале надо создать искусственный интеллект (карты глубины - лажа - надо 2d текстуры на полигоны 3d модели натягивать - а саму модель только ИИ поднять из 2d кадра может - кстати появились новые идеи - специалисты в области Real Ray Tracing отзовитесь) а потом уже фильмы из 2d в 3d конвертить :)
 

ВНИМАНИЕ! Кто ещё не успел скачать имейте в виду - на днях постараюсь выложить 1080р-анаморф!
 

http://torrents3d.ru/viewtopic.php?t=619 (Там вроде битрейт повыше)
http://torrents3d.ru/viewtopic.php?t=564
Можно уже сайт начинать структурировать по фильмам - сделать групповые темы по названию фильма (фильмы -> AVATAR -> AVATAR anaglif ; AVATAR 720р OverUnder; AVATAR CamRip и т.д.) - а в них разные форматы от анаглифа до блюрей ремукс - хорошая идея кстати - а то уже по общему поиску 9 страниц уже
уже пробовал такое предлагать поддержки у адмиинистрации пока что это предложение не нашло, предлагалось активнее пользоваться поиском по названию с фильмом. думаю придется ждать пока не наберется критическая масса тем, когда об этом не начнут говорить многие или пока конкуренты не додумаются до этого.
 

ВНИМАНИЕ! Кто ещё не успел скачать имейте в виду - на днях постараюсь выложить 1080р-анаморф!
Ммм. а 1080p будет?
 

Страница 1 из 2

1, 2  След.