Торренты   
 
 

 

IMAX. На глубине морской 3D / Under the Sea 3D [2009, BDrip, half1080p, Anamorph OverUnder]

Рейтинг 3D:
146 голосов
9.2
Рейтинг фильма:
137 голосов
8.8
 
Вы должны быть авторизированы,
чтобы ставить оценки


-На глубине морской / Under the Sea Год выпуска: 2009
Страна: США, Канада (IMAX, Warner Bros. Pictures)
Жанр: Документальный, Видовой
Продолжительность: 00:40:48
Перевод: Одноголосый закадровый
Режиссёр: Ховард Холл / Howard Hall
Рассказчик: Александр Кривцов / Джим Керри
Описание: Снятый полностью трехмерными камерами IMAX®, этот новый фильм перемещает зрителей в одни из самых экзотических и изолированных подводных мест на Земле, включая Южную Австралию и Большой Барьерный риф, а так же Папуа-Новую Гвинею и Индонезию в знаменитом Коралловом Треугольнике.
В фильме показаны привычки и среда обитания Больших Белых Акул, Яркой Каракатицы, Покрытых листвой Морских Драконов, Гигантских Скатов, Медуз, Зеленых Морских Черепах, игривых австралийских Морских Львов, шестифутовых Угрей и множество других красочных рыб и обитателей морской жизни.-- Премьера: 13 февраля 2009г / 27 августа 2009г Проверено на встроенном плейере ТВ Samsung UE-C7000--Формат 3D: Anamorph OverUnder
Качество: BDrip
Контейнер: MKV-Видео: AVC / 23,976 fps / 1920х1080p / 23.9 Mbps
Аудио:
#1 - Русский / AC3 / 48 KHz / 5.1 ch / 448 Kbps (AVO - Александр Кривцов)
#2 - Английский / AC3 / 48 KHz / 5.1 ch / 640 Kbps
Субтитры: Отсутствуют

MediaInfo

General
UniqueID : 203226315113514426104838325851493520159 (0x98E3F6EE7B9B7D2D8A5208EC792C531F)
Complete name : F:\Downloads\UnderTheSea(3D)2009.halfOU(Ash61).mkv
Format : Matroska
File size : 7.29 GiB
Duration : 40mn 52s
Overall bit rate : 25.5 Mbps
Movie name : Under the Sea (3D) 2009 (Ash61)
Encoded date : UTC 2012-05-17 21:00:48
Writing application : mkvmerge v3.4.0 ('Rapunzel') сборка от May 15 2010 09:38:20
Writing library : libebml v0.8.0 + libmatroska v0.9.0
Video
ID : 1
Format : AVC
Format/Info : Advanced Video Codec
Format profile : High@L4.1
Format settings, CABAC : Yes
Format settings, ReFrames : 4 frames
Codec ID : V_MPEG4/ISO/AVC
Duration : 40mn 52s
Bit rate : 23.9 Mbps
Width : 1 920 pixels
Height : 1 080 pixels
Display aspect ratio : 16:9
Frame rate : 23.976 fps
Color space : YUV
Chroma subsampling : 4:2:0
Bit depth : 8 bits
Scan type : Progressive
Bits/(Pixel*Frame) : 0.481
Stream size : 6.83 GiB (94%)
Title : BDrip by Ash61
Writing library : x264 core 119 r2106 07efeb4
Encoding settings : cabac=1 / ref=4 / deblock=1:-3:-3 / analyse=0x3:0x113 / me=umh / subme=9 / psy=1 / psy_rd=1.00:0.15 / mixed_ref=1 / me_range=16 / chroma_me=1 / trellis=2 / 8x8dct=1 / cqm=0 / deadzone=21,11 / fast_pskip=1 / chroma_qp_offset=-3 / threads=3 / sliced_threads=0 / nr=0 / decimate=1 / interlaced=0 / bluray_compat=0 / constrained_intra=0 / bframes=6 / b_pyramid=2 / b_adapt=2 / b_bias=0 / direct=3 / weightb=1 / open_gop=0 / weightp=2 / keyint=250 / keyint_min=23 / scenecut=40 / intra_refresh=0 / rc_lookahead=60 / rc=crf / mbtree=1 / crf=17.0 / qcomp=0.70 / qpmin=0 / qpmax=69 / qpstep=4 / vbv_maxrate=40000 / vbv_bufsize=40000 / crf_max=0.0 / nal_hrd=none / frame-packing=4 / ip_ratio=1.40 / aq=1:0.70
Audio #1
ID : 2
Format : AC-3
Format/Info : Audio Coding 3
Mode extension : CM (complete main)
Codec ID : A_AC3
Duration : 40mn 52s
Bit rate mode : Constant
Bit rate : 448 Kbps
Channel(s) : 6 channels
Channel positions : Front: L C R, Side: L R, LFE
Sampling rate : 48.0 KHz
Bit depth : 16 bits
Compression mode : Lossy
Stream size : 131 MiB (2%)
Title : AVO - Александр Кривцов
Language : Russian
Audio #2
ID : 3
Format : AC-3
Format/Info : Audio Coding 3
Mode extension : CM (complete main)
Codec ID : A_AC3
Duration : 40mn 52s
Bit rate mode : Constant
Bit rate : 640 Kbps
Channel(s) : 6 channels
Channel positions : Front: L C R, Side: L R, LFE
Sampling rate : 48.0 KHz
Bit depth : 16 bits
Compression mode : Lossy
Stream size : 187 MiB (3%)
Language : English
Menu
00:00:00.000 : :1
00:09:11.509 : :2
00:19:25.748 : :3
00:29:32.604 : :4
00:39:36.291 : :5
24.06.2012 - Релиз обновлён - HDrip заменён на BDrip.
Желающие, скачайте заново торрент-файл.
Благодарности релизеру (161)

Торрент:

Статус:

Размер:

Зарегистрирован   [ 2012-06-24 23:51 ]

проверено

7.29 GB