Торренты   
 
 

 

Замок с привидениями 3Д / Haunted Castle 3D (Бен Стассен) [2001 г., Anaglyph, red'cyan]

Рейтинг 3D:
3 голосов
8.9
Рейтинг фильма:
2 голосов
9.0
 
Вы должны быть авторизированы,
чтобы ставить оценки


Замок с привидениями 3Д / Haunted Castle 3D
Год выпуска: 2001
Страна: Бельгия, США
Жанр: Компьютерная анимация / ужасы / триллер
Продолжительность: 0:36:42
Перевод: Любительский(одноголосый)
Режиссер: Бен Стассен
В ролях: Джаспер Стиверлинк, Гарри Ширер, Киоко Баэртсоен и др.
Описание: Замок притягивает нас… замок, населенный привидениями. Мать Джонни — стареющая, когда-то очень популярная рок-певица, доживающая свои последние годы в старом, овеянном тайной замке. Но вот мать умирает, и Джонни, молодой, самобытный, подающий надежды музыкант — отправляется в замок матери. Такова была ее последняя воля. Если не сказать прихоть — сын не видел мать с трехлетнего возраста. Джонни обнаруживает, что замок не столь безмолвен, каким кажется. Постепенно замок начинает оживать, наполняться духами.
Джонни узнает Мефисто, прихвостня мистера Ди, хранителя злых сил замка. Мефисто докладывает Джонни: Мистер Ди давно ждет его, чтобы пролить свет на многие вопросы. Ди делает Джонни интересное предложение — точно такое же что, более двадцати лет назад, приняла его мать. Продай свою душу в обмен на умопомрачительную славу и богатство, говорит мистер Ди. Но Джонни не спешит с ответом. И тогда Ди предлагает нашему герою отправиться на экскурсию по замку, экскурсию, которая решит все…
Доп. информация:
Источник DVD интерлейс
Формат: AVI
Видео: XviD; 720x480; 3:2; 29,970 кадр/сек; 3514 Кбит/сек
Аудио:
Russian; AC-3; 48,0 КГц; 192 Кбит/сек; 2ch(Front: L R) (St. Altera Pars)
English; AC-3; 48,0 КГц; 384 Кбит/сек; 6ch(Front: L C R, Side: L R, LFE)
12.05.2011 торрент перезалит Спасибо PSergey за рус. дорогу :)

Формат 3d: Anaglyph
Цвета очков:

MediaInfo

Общее
Полное имя : Haunted Castle 3D_AnRC(torrents3d.ru).avi
Формат : AVI
Формат/Информация : Audio Video Interleave
Размер файла : 1,05 Гбайт
Продолжительность : 36 м.
Общий поток : 4107 Кбит/сек
Программа кодирования : VirtualDubMod 1.5.10.3 (build 2550/release)
Библиотека кодирования : VirtualDubMod build 2550/release
Видео
Идентификатор : 0
Формат : MPEG-4 Visual
Профиль формата : Advanced Simple@L5
Параметр BVOP формата : 2
Параметр QPel формата : Нет
Параметр GMC формата : Без точки перехода
Параметр матрицы формата : Default (H.263)
Режим смешивания : Сжатый битовый поток
Идентификатор кодека : XVID
Идентификатор кодека/Подсказка : XviD
Продолжительность : 36 м.
Битрейт : 3514 Кбит/сек
Ширина : 720 пикс.
Высота : 480 пикс.
Соотношение сторон : 3:2
Частота кадров : 29,970 кадр/сек
Стандарт вещания : NTSC
Цветовое пространство : YUV
Подвыборка цветности : 4:2:0
Битовая глубина : 8 бит
Тип развёртки : Прогрессивная
Метод сжатия : С потерями
Бит/(Пиксели*Кадры) : 0.339
Размер потока : 923 Мбайт (86%)
Библиотека кодирования : XviD 1.2.1 (UTC 2008-12-04)
Аудио #1
Идентификатор : 1
Формат : AC-3
Формат/Информация : Audio Coding 3
Расширение режима : CM (complete main)
Идентификатор кодека : 2000
Продолжительность : 36 м.
Вид битрейта : Постоянный
Битрейт : 192 Кбит/сек
Канал(ы) : 2 канала(ов)
Расположение каналов : Front: L R
Частота : 48,0 КГц
Битовая глубина : 16 бит
Метод сжатия : С потерями
Задержка видео : 12 мс.
Размер потока : 50,4 Мбайт (5%)
Выравнивание : Разделение по промежуткам
Продолжительность промежутка : 33 мс. (1,00 видеокадр)
Время предзагрузки промежутка : 500 ms
Аудио #2
Идентификатор : 2
Формат : AC-3
Формат/Информация : Audio Coding 3
Расширение режима : CM (complete main)
Идентификатор кодека : 2000
Продолжительность : 36 м.
Вид битрейта : Постоянный
Битрейт : 384 Кбит/сек
Канал(ы) : 6 канала(ов)
Расположение каналов : Front: L C R, Side: L R, LFE
Частота : 48,0 КГц
Битовая глубина : 16 бит
Метод сжатия : С потерями
Размер потока : 101 Мбайт (9%)
Выравнивание : Разделение по промежуткам
Продолжительность промежутка : 33 мс. (1,00 видеокадр)
Время предзагрузки промежутка : 500 ms

Скриншоты


Мои раздачи в анаглифе
Благодарности релизеру (1)

Торрент:

Статус:

Размер:

Зарегистрирован   [ 2011-05-12 23:14 ]

проверено

1.05 GB