Торренты   
 
 

 

IMAX. Космическая станция 3D / Space Station 3D (Toni Myers) [2002 г, 1080p, Anamorph OverUnder]

Рейтинг 3D:
17 голосов
8.7
Рейтинг фильма:
16 голосов
8.2
 
Вы должны быть авторизированы,
чтобы ставить оценки


IMAX. Космическая станция 3D / Space Station 3D
Год выпуска: 2002
Страна: США, Канада
Жанр: Документальный
Продолжительность: 00:47:11
Перевод: Любительский (одноголосый) by Znajusvoedelo
Режиссер: Toni Myers
Рассказчик: Том Круз
В ролях: Джеймс Арнольд, Майкл Дж. Блумфилд, Robert D. Cabana, Лерой Чао, Kenneth D. Cockrell, Robert L. Curbeam Jr., Брайан Даффи, Marc Garneau, Michael L. Gernhardt
Описание: Первый 3D-фильм, снятый в открытом кос­мосе. Зрители путешествуют на околоземной орбите по Международной космической стан­ции — масштабному космическому проекту 21-го века. 16 стран, включая Россию, приняли участие в создании этой космической лаборатории. Нам представляется уникальный шанс выйти в открытый космос, не покидая уютного кресла дома.
Качество: HDRip (c BDRip by eugeniy)
Формат: MKV
Видео: AVC / 1920x1080 / 23.976fps / 7500 Kbps
Аудио #1: Русский / AC3 / 6ch / 448 Kbps / 48 KHz
Аудио #2: Английский / AC3 / 6ch / 640 Kbps / 48 KHz
Субтитры #1: Русский (с лицензии)
Субтитры #2: Русский (Hughjass)
Субтитры #3: "Буржуйский" (но не english) :)
Формат 3d: Anamorph OverUnder

MediaInfo

General
Complete name : O:\Downloads\Space Station 3d.anmf.mkv
Format : Matroska
File size : 2.83 GiB
Duration : 47mn 11s
Overall bit rate : 8 582 Kbps
Encoded date : UTC 2010-12-10 18:09:09
Writing application : mkvmerge v4.0.0 ('The Stars were mine') сборка от Jun 11 2010 23:24:27
Writing library : libebml v1.0.0 + libmatroska v1.0.0
Video
ID : 1
Format : AVC
Format/Info : Advanced Video Codec
Format profile : High@L4.0
Format settings, CABAC : Yes
Format settings, ReFrames : 4 frames
Codec ID : V_MPEG4/ISO/AVC
Duration : 47mn 11s
Bit rate : 7 500 Kbps
Width : 1 920 pixels
Height : 1 080 pixels
Display aspect ratio : 16:9
Frame rate : 23.976 fps
Color space : YUV
Chroma subsampling : 4:2:0
Bit depth : 8 bits
Scan type : Progressive
Bits/(Pixel*Frame) : 0.151
Stream size : 2.41 GiB (85%)
Writing library : x264 core 98 r1649 c54c47d
Encoding settings : cabac=1 / ref=3 / deblock=1:0:0 / analyse=0x3:0x113 / me=hex / subme=7 / psy=1 / psy_rd=1.00:0.00 / mixed_ref=1 / me_range=16 / chroma_me=1 / trellis=1 / 8x8dct=1 / cqm=0 / deadzone=21,11 / fast_pskip=1 / chroma_qp_offset=-2 / threads=3 / sliced_threads=0 / nr=0 / decimate=1 / interlaced=0 / constrained_intra=0 / bframes=3 / b_pyramid=2 / b_adapt=1 / b_bias=0 / direct=1 / weightb=1 / weightp=2 / keyint=250 / keyint_min=25 / scenecut=40 / intra_refresh=0 / rc_lookahead=40 / rc=2pass / mbtree=1 / bitrate=7500 / ratetol=1.0 / qcomp=0.60 / qpmin=10 / qpmax=51 / qpstep=4 / cplxblur=20.0 / qblur=0.5 / ip_ratio=1.40 / aq=1:1.00
Language : English
Audio #1
ID : 2
Format : AC-3
Format/Info : Audio Coding 3
Mode extension : CM (complete main)
Codec ID : A_AC3
Duration : 47mn 11s
Bit rate mode : Constant
Bit rate : 448 Kbps
Channel(s) : 6 channels
Channel positions : Front: L C R, Side: L R, LFE
Sampling rate : 48.0 KHz
Bit depth : 16 bits
Stream size : 151 MiB (5%)
Title : Russian
Language : Russian
Audio #2
ID : 3
Format : AC-3
Format/Info : Audio Coding 3
Mode extension : CM (complete main)
Codec ID : A_AC3
Duration : 47mn 11s
Bit rate mode : Constant
Bit rate : 640 Kbps
Channel(s) : 6 channels
Channel positions : Front: L C R, Side: L R, LFE
Sampling rate : 48.0 KHz
Bit depth : 16 bits
Stream size : 216 MiB (7%)
Language : English
Text #1
ID : 4
Format : UTF-8
Codec ID : S_TEXT/UTF8
Codec ID/Info : UTF-8 Plain Text
Title : перевод с лицензии
Language : Russian
Text #2
ID : 5
Format : UTF-8
Codec ID : S_TEXT/UTF8
Codec ID/Info : UTF-8 Plain Text
Title : перевод: hughjass
Language : Russian
Text #3
ID : 6
Format : UTF-8
Codec ID : S_TEXT/UTF8
Codec ID/Info : UTF-8 Plain Text
Language : English

Скриншоты (миниатюры с кликом)



Благодарности релизеру (34)

Торрент:

Статус:

Размер:

Зарегистрирован   [ 2010-12-10 23:28 ]

проверено

2.83 GB