Торренты   
 
 

 

IMAX. Тайны подводного мира 3D / Deep Sea (Howard Hall) [2006 г, 1080p, Anamorph OverUnder]

Рейтинг 3D:
69 голосов
9.2
Рейтинг фильма:
61 голосов
9.0
 
Вы должны быть авторизированы,
чтобы ставить оценки


IMAX. Тайны подводного мира 3D / Deep Sea
Год выпуска: 2006
Страна: США, Канада
Жанр: Документальный
Продолжительность: 00:40:49
Перевод: Профессиональный (полное дублирование)
Режиссер: Howard Hall
Описание: Корпорация «IMAX» представляет фильм о тайнах морских глубин. Зрители знакомятся с уникальнейшими обитателями подводного мира и узнают о необычных порядках и законах, царящих на дне мирового океана. Это один из самых красивых и эффектных фильмов "океанической серии".
Качество: HDRip (c BDRip by Solaris)
Формат: MKV
Видео: AVC / 1920x1080 / 23.976fps / 12 Mbps
Аудио: Русский / AC3 / 6ch / 448 Kbps / 48 KHz
Оригинальной аудио дорожки нет!
Формат 3d: Anamorph OverUnder

MediaInfo

General
Complete name : O:\Downloads\Deep Sea in 3D.anmf.mkv
Format : Matroska
File size : 3.55 GiB
Duration : 40mn 49s
Overall bit rate : 12.5 Mbps
Encoded date : UTC 2010-12-11 14:06:52
Writing application : mkvmerge v4.0.0 ('The Stars were mine') сборка от Jun 11 2010 23:24:27
Writing library : libebml v1.0.0 + libmatroska v1.0.0
Video
ID : 1
Format : AVC
Format/Info : Advanced Video Codec
Format profile : High@L4.0
Format settings, CABAC : Yes
Format settings, ReFrames : 4 frames
Codec ID : V_MPEG4/ISO/AVC
Duration : 40mn 49s
Bit rate : 12.0 Mbps
Width : 1 920 pixels
Height : 1 080 pixels
Display aspect ratio : 16:9
Frame rate : 23.976 fps
Color space : YUV
Chroma subsampling : 4:2:0
Bit depth : 8 bits
Scan type : Progressive
Bits/(Pixel*Frame) : 0.241
Stream size : 3.35 GiB (94%)
Writing library : x264 core 98 r1649 c54c47d
Encoding settings : cabac=1 / ref=3 / deblock=1:0:0 / analyse=0x3:0x113 / me=hex / subme=7 / psy=1 / psy_rd=1.00:0.00 / mixed_ref=1 / me_range=16 / chroma_me=1 / trellis=1 / 8x8dct=1 / cqm=0 / deadzone=21,11 / fast_pskip=1 / chroma_qp_offset=-2 / threads=3 / sliced_threads=0 / nr=0 / decimate=1 / interlaced=0 / constrained_intra=0 / bframes=3 / b_pyramid=2 / b_adapt=1 / b_bias=0 / direct=1 / weightb=1 / weightp=2 / keyint=250 / keyint_min=25 / scenecut=40 / intra_refresh=0 / rc_lookahead=40 / rc=2pass / mbtree=1 / bitrate=12000 / ratetol=1.0 / qcomp=0.60 / qpmin=10 / qpmax=51 / qpstep=4 / cplxblur=20.0 / qblur=0.5 / ip_ratio=1.40 / aq=1:1.00
Language : English
Audio
ID : 2
Format : AC-3
Format/Info : Audio Coding 3
Mode extension : CM (complete main)
Codec ID : A_AC3
Duration : 40mn 49s
Bit rate mode : Constant
Bit rate : 448 Kbps
Channel(s) : 6 channels
Channel positions : Front: L C R, Side: L R, LFE
Sampling rate : 48.0 KHz
Bit depth : 16 bits
Stream size : 131 MiB (4%)
Language : Russian

Скриншоты (превью с кликом)



Благодарности релизеру (90)

Торрент:

Статус:

Размер:

Зарегистрирован   [ 2010-12-11 18:43 ]

проверено

3.55 GB