Торренты   
 
 

 

IMAX. На глубине 3д (Жизнь глубин) / Into the Deep 3D (Howard Hall) [1994 г, 1080p, Документальный, Anamorph OverUnder]

Рейтинг 3D:
12 голосов
8.3
Рейтинг фильма:
9 голосов
7.7
 
Вы должны быть авторизированы,
чтобы ставить оценки


IMAX. На глубине 3д (Жизнь глубин) / Into the Deep 3D
Год выпуска: 1994
Страна: США, Канада, Франция, Япония
Жанр: Документальный
Продолжительность: 00:34:20
Перевод: Отсутствует
Режиссер: Howard Hall
Композиторы: Micky Erbe, Maribeth Solomon
Комментарий: Kate Nelligan
Описание: «Жизнь глубин» переносит зрителей в захватывающее 3D-исследование жизни подводного мира. Впервые используя IMAX 3D-камеру под водой, удалось захватить картины уникальной морской жизни и великолепные подводные пейзажи. Зрители сами становится обитателями морского дна, открывая для себя калейдоскоп жизни в океане через призму технологии IMAX 3D.
Качество: HDRip (c BDRip by eugeniy)
Формат: MKV
Видео: AVC / 1920х1080р / 23.976 fps / 20 Mbps
Аудио: AC3 / 6 channels / 448 kbps / 48 KHz
Формат 3d: Anamorph OverUnder

MediaInfo

General
Complete name : O:\Downloads\Into the Deep.3D.1080p.anmf.mkv
Format : Matroska
File size : 4.90 GiB
Duration : 34mn 20s
Overall bit rate : 20.4 Mbps
Encoded date : UTC 2010-12-12 13:08:53
Writing application : mkvmerge v4.0.0 ('The Stars were mine') сборка от Jun 11 2010 23:24:27
Writing library : libebml v1.0.0 + libmatroska v1.0.0
Video
ID : 1
Format : AVC
Format/Info : Advanced Video Codec
Format profile : High@L4.1
Format settings, CABAC : Yes
Format settings, ReFrames : 4 frames
Codec ID : V_MPEG4/ISO/AVC
Duration : 34mn 20s
Bit rate : 20.0 Mbps
Width : 1 920 pixels
Height : 1 080 pixels
Display aspect ratio : 16:9
Frame rate : 23.976 fps
Color space : YUV
Chroma subsampling : 4:2:0
Bit depth : 8 bits
Scan type : Progressive
Bits/(Pixel*Frame) : 0.402
Stream size : 4.70 GiB (96%)
Writing library : x264 core 98 r1649 c54c47d
Encoding settings : cabac=1 / ref=3 / deblock=1:0:0 / analyse=0x3:0x113 / me=hex / subme=7 / psy=1 / psy_rd=1.00:0.00 / mixed_ref=1 / me_range=16 / chroma_me=1 / trellis=1 / 8x8dct=1 / cqm=0 / deadzone=21,11 / fast_pskip=1 / chroma_qp_offset=-2 / threads=3 / sliced_threads=0 / nr=0 / decimate=1 / interlaced=0 / constrained_intra=0 / bframes=3 / b_pyramid=2 / b_adapt=1 / b_bias=0 / direct=1 / weightb=1 / weightp=2 / keyint=250 / keyint_min=25 / scenecut=40 / intra_refresh=0 / rc_lookahead=40 / rc=2pass / mbtree=1 / bitrate=20000 / ratetol=1.0 / qcomp=0.60 / qpmin=10 / qpmax=51 / qpstep=4 / cplxblur=20.0 / qblur=0.5 / ip_ratio=1.40 / aq=1:1.00
Language : English
Audio
ID : 2
Format : AC-3
Format/Info : Audio Coding 3
Mode extension : CM (complete main)
Codec ID : A_AC3
Duration : 34mn 20s
Bit rate mode : Constant
Bit rate : 448 Kbps
Channel(s) : 6 channels
Channel positions : Front: L C R, Side: L R, LFE
Sampling rate : 48.0 KHz
Bit depth : 16 bits
Stream size : 110 MiB (2%)
Language : English

Скриншоты - превью с кликом



Благодарности релизеру (18)

Торрент:

Статус:

Размер:

Зарегистрирован   [ 2010-12-12 18:22 ]

проверено

4.9 GB