Торренты   
 
 

 

Обитель зла 4: Жизнь после смерти 3D / Resident Evil: Afterlife 3D (Пол У. С. Андерсон) [2010 г, 1080p, Anamorph SideBySide]

Рейтинг 3D:
76 голосов
8.4
Рейтинг фильма:
75 голосов
7.3
 
Вы должны быть авторизированы,
чтобы ставить оценки


Обитель зла 4: Жизнь после смерти 3D / Resident Evil: Afterlife 3D
Год выпуска: 2010
Страна: Германия, Франция, Великобритания
Жанр: ужасы, фантастика, боевик, триллер
Продолжительность: 01:36:52
Перевод: Профессиональный (полное дублирование)
Режиссер: Пол У. С. Андерсон
В ролях: Милла Йовович (Alice), Эли Лартер (Claire Redfield), Вентворт Миллер (Chris Redfield), Ким Коутс (Bennett), Шоун Робертс (Albert Wesker), Серджо Перис-Менчета (Angel), Спенсер Лок (K-Mart), Борис Коджо (Luther), Сиенна Гиллори (Jill Valentine), Кейси Барнфилд (Crystal), Норман Енг (Kim Yong), Фульвио Чечере (Wendell)
Описание: Элис продолжает свой путь в мире, поражённом вирусной инфекцией, превращающей людей в нежить. Героиня ищет оставшихся в живых, чтобы вывести их в безопасное место. Её смертельная битва с корпорацией Амбрелла выходит на новый уровень, когда она вдруг получает неожиданную помощь от старого друга. Он обещает привести Элис в безопасную зону в Лос-Анджелесе, но как только они попадают в город, то видят тысячи и тысячи заражённых и оказываются в смертельной ловушке.
Качество: HDRip (c BDRip by Dag13)
Формат: MKV
Видео: AVC / 1920x1080 / 23.976fps / 7500 Kbps
Аудио: Русский / AC3 / 6ch / 448 Kbps / 48 KHz
Формат 3d: Anamorph SideBySide
Порядок ракурсов: Параллельная пара

MediaInfo

General
Complete name : O:\Downloads\Resident Evil 3D.1080p.anmf.mkv
Format : Matroska
File size : 5.37 GiB
Duration : 1h 36mn
Overall bit rate : 7 940 Kbps
Encoded date : UTC 2010-12-13 08:14:39
Writing application : mkvmerge v4.0.0 ('The Stars were mine') сборка от Jun 11 2010 23:24:27
Writing library : libebml v1.0.0 + libmatroska v1.0.0
Video
ID : 1
Format : AVC
Format/Info : Advanced Video Codec
Format profile : High@L4.0
Format settings, CABAC : Yes
Format settings, ReFrames : 4 frames
Codec ID : V_MPEG4/ISO/AVC
Duration : 1h 36mn
Bit rate : 7 500 Kbps
Width : 1 920 pixels
Height : 1 080 pixels
Display aspect ratio : 16:9
Frame rate : 23.976 fps
Color space : YUV
Chroma subsampling : 4:2:0
Bit depth : 8 bits
Scan type : Progressive
Bits/(Pixel*Frame) : 0.151
Stream size : 4.96 GiB (92%)
Writing library : x264 core 98 r1649 c54c47d
Encoding settings : cabac=1 / ref=3 / deblock=1:0:0 / analyse=0x3:0x113 / me=hex / subme=7 / psy=1 / psy_rd=1.00:0.00 / mixed_ref=1 / me_range=16 / chroma_me=1 / trellis=1 / 8x8dct=1 / cqm=0 / deadzone=21,11 / fast_pskip=1 / chroma_qp_offset=-2 / threads=3 / sliced_threads=0 / nr=0 / decimate=1 / interlaced=0 / constrained_intra=0 / bframes=3 / b_pyramid=2 / b_adapt=1 / b_bias=0 / direct=1 / weightb=1 / weightp=2 / keyint=250 / keyint_min=25 / scenecut=40 / intra_refresh=0 / rc_lookahead=40 / rc=2pass / mbtree=1 / bitrate=7500 / ratetol=1.0 / qcomp=0.60 / qpmin=10 / qpmax=51 / qpstep=4 / cplxblur=20.0 / qblur=0.5 / ip_ratio=1.40 / aq=1:1.00
Language : English
Audio
ID : 2
Format : AC-3
Format/Info : Audio Coding 3
Mode extension : CM (complete main)
Codec ID : A_AC3
Duration : 1h 36mn
Bit rate mode : Constant
Bit rate : 448 Kbps
Channel(s) : 6 channels
Channel positions : Front: L C R, Side: L R, LFE
Sampling rate : 48.0 KHz
Bit depth : 16 bits
Stream size : 310 MiB (6%)
Language : Russian

Скриншоты - превью с кликом



Остальные раздачи этого фильма (7)
Благодарности релизеру (28)

Торрент:

Статус:

Размер:

Зарегистрирован   [ 2010-12-13 13:30 ]

проверено

5.37 GB

 
 Мнение о фильме (32)

Пред.  1, 2






Отличное 3Д кстати тут! Просто жесть)
 
Президент Гондураса Профиль 07-Сен-2012 19:51

Классный фильм и 3D,c интересом посмотрел предыдущие Обитель,ждём пятый.
 

Огромное спасибо релизеру!! Ну и что, что фильм ради 3Д и не идет в сравнение с первыми сюжетами(кроме второго - там полная х... ИМХО).Те кто в далеких 90х играл в RE еще на Sony PS1, замирая от каждого звука, скрипа дверей и шороха монстров, будут смотреть даже если сюжет хромает. А тут еще такое 3Д! Очень ждем пятый!
 

Avatar i etot horoshi v 3d ,no na chyot effektov Final Destination 4 i 5 chast namnogo prevoshodyat ih
 

По сравнению с 5 частью шедевр по сравнению с 1 отстой а качество картинки на уровне.
 

3D хорошее,оставил в коллекцию!
 

Фильм нормальный,но временами очень мало экшена и становится как-то скучно смотреть.А так,если смотреть до конца,то довольно смотрибельно.3D эфекты нормальные)
 

Да, не без забавных сцен, но нормально )) ждем продолжение ))
 

Качал фильм для коллекции,хобби-собирать полный сериал в независимости от продуманности сюжета.Качество рипа на уровне , 3D-соответсвует задумке режиссёра на все 100%
 

Шикарное 3D. Классный боевик.
 

Хороший фильм.Спасибо)))
 

Please ask the seeds friends
 

Страница 2 из 2

Пред.  1, 2