Торренты   
 
 

 

IMAX. Динозавры живы! 3D / Dinosaurs Alive 3D (Дэвид Кларк, Bayley Silleck) [2007 г, 1080p, Anamorph OverUnder]

Рейтинг 3D:
1 голосов
2.0
Рейтинг фильма:
1 голосов
6.0
 
Вы должны быть авторизированы,
чтобы ставить оценки


IMAX. Динозавры живы! 3D / Dinosaurs Alive 3D
Год выпуска: 2007
Страна: США
Жанр: Документальный
Продолжительность: 00:39:54
Перевод: Отсутствует
Режиссер: Дэвид Кларк, Bayley Silleck
Комментарий: Майкл Дуглас
Описание: "Динозавры живы!" — одна из новейших и интереснейших страниц в книге уникальных палеонтологических открытий, когда-либо сделанных в научном мире.
Зрители совершат увлекательное приключение вместе с самыми выдающимися палеонтологами мира, которые докажут, что потомки динозавров живут среди нас, древние черты угадываются в современном животном мире. Фильм рассказывает о древних ящерах триасового периода, живших около 260 миллионов лет назад, начиная с первых динозавров довольно скромных размеров — не больше кошки или собаки, заканчивая монстрами мелового периода, восставшими в натуральную величину на гигантском экране суперкинотеатра Nescafe IMAX.
Окаменелые истории из жизни динозавров — это великие моменты из прошлого, восстановленные с помощью самой современной компьютерной графики.
Одна из самых захватывающих сцен фильма рассказывает нам, как боролись древние ящеры — Велоцираптор и Протоцератопс, пока песчаная дюна не обвалилась и не накрыла их навеки. Редчайшие исторические кадры съемок экспедиции, благодаря трехмерному изображению, обеспечивают нам погружение в наше далекое прошлое через время и расстояния.
Качество: HDRip (исходник by Dag13)
Формат: MKV
Видео: AVC / 1920x1080 / 23.976fps / 8000 Kbps
Аудио: AC3 / 6ch / 640 Kbps / 48 KHz
Формат 3d: Anamorph OverUnder

MediaInfo

General
Complete name : O:\Downloads\Dinosaurs Alive.1080р.anmf.mkv
Format : Matroska
File size : 2.41 GiB
Duration : 39mn 54s
Overall bit rate : 8 650 Kbps
Encoded date : UTC 2010-12-13 12:23:32
Writing application : mkvmerge v4.0.0 ('The Stars were mine') сборка от Jun 11 2010 23:24:27
Writing library : libebml v1.0.0 + libmatroska v1.0.0
Video
ID : 1
Format : AVC
Format/Info : Advanced Video Codec
Format profile : High@L4.0
Format settings, CABAC : Yes
Format settings, ReFrames : 4 frames
Codec ID : V_MPEG4/ISO/AVC
Duration : 39mn 54s
Bit rate : 8 000 Kbps
Width : 1 920 pixels
Height : 1 080 pixels
Display aspect ratio : 16:9
Frame rate : 23.976 fps
Color space : YUV
Chroma subsampling : 4:2:0
Bit depth : 8 bits
Scan type : Progressive
Bits/(Pixel*Frame) : 0.161
Stream size : 2.18 GiB (91%)
Writing library : x264 core 98 r1649 c54c47d
Encoding settings : cabac=1 / ref=3 / deblock=1:0:0 / analyse=0x3:0x113 / me=hex / subme=7 / psy=1 / psy_rd=1.00:0.00 / mixed_ref=1 / me_range=16 / chroma_me=1 / trellis=1 / 8x8dct=1 / cqm=0 / deadzone=21,11 / fast_pskip=1 / chroma_qp_offset=-2 / threads=3 / sliced_threads=0 / nr=0 / decimate=1 / interlaced=0 / constrained_intra=0 / bframes=3 / b_pyramid=2 / b_adapt=1 / b_bias=0 / direct=1 / weightb=1 / weightp=2 / keyint=250 / keyint_min=25 / scenecut=40 / intra_refresh=0 / rc_lookahead=40 / rc=2pass / mbtree=1 / bitrate=8000 / ratetol=1.0 / qcomp=0.60 / qpmin=10 / qpmax=51 / qpstep=4 / cplxblur=20.0 / qblur=0.5 / ip_ratio=1.40 / aq=1:1.00
Language : English
Audio
ID : 2
Format : AC-3
Format/Info : Audio Coding 3
Mode extension : CM (complete main)
Codec ID : A_AC3
Duration : 39mn 54s
Bit rate mode : Constant
Bit rate : 640 Kbps
Channel(s) : 6 channels
Channel positions : Front: L C R, Side: L R, LFE
Sampling rate : 48.0 KHz
Bit depth : 16 bits
Stream size : 183 MiB (7%)
Language : English

Скриншоты



Благодарности релизеру (2)

Торрент:

Статус:

Размер:

Зарегистрирован   [ 2010-12-13 19:08 ]

проверено

2.41 GB