Торренты   
 
 

 

Монстры против пришельцев 3D / Monsters vs Aliens 3D (Роб Леттерман, Конрад Вернон) [2009 г, 1080p, Anamorph SideBySide]

Рейтинг 3D:
50 голосов
8.7
Рейтинг фильма:
49 голосов
8.4
 
Вы должны быть авторизированы,
чтобы ставить оценки


Монстры против пришельцев 3D / Monsters vs Aliens 3D
Год выпуска: 2009
Страна: США
Жанр: Мультфильм, фантастика, боевик, комедия
Продолжительность: 01:34:30
Перевод: Профессиональный (полное дублирование)
Субтитры: русские, английские
Режиссер: Роб Леттерман, Конрад Вернон
Роли озвучивали [Eng]: Риз Уизерспун, Сет Роген, Хью Лори, Уилл Арнетт, Кифер Сазерленд, Рэйн Уилсон, Стефен Колбер, Пол Радд, Джули Уайт, Джефри Тэмбор.
[Rus]: Глюкоза, Виктор Логинов, Александр Ревва, Дмитрий Дюжев, Сергей Гармаш.
Описание: В Сюзан Мёрфи, девушку из Калифорнии, прямо в день ее свадьбы попадает метеорит, полный всякой дряни из космоса, в результате чего она вдруг начинает расти и вырастает до пятнадцати метров. Встревоженные появлением нового монстра, военные сразу берутся за дело: Сюзан отлавливают и увозят на секретную правительственную базу.
Там её переименовывают в Гигантику и запирают вместе с другими монстрами: гениальным, но насекомоголовым доктором наук Тараканом; брутальным рыбочеловеком по кличке Недостающее Звено; желеподобным и неубиваемым Б. О. Бом и стометровым Насекомозавром. Правда, их тюремное заключение длится недолго: на Землю нападает инопланетный робот, и отчаявшийся Президент, поддавшись уговорам генерала Воякера, отправляет разношерстную команду монстров на спасение планеты от неминуемой гибели.
Качество: HDRip (с BDRip by eugeniy)
Формат: MKV
Видео: AVC / 1920x1080 / 23.976fps / 6900 Kbps
Аудио [rus]: AC3 / 6ch / 640 Kbps / 48 KHz
Аудио [eng]: AC3 / 6ch / 640 Kbps / 48 KHz
Формат 3d: Anamorph SideBySide
Порядок ракурсов: Параллельная пара

MediaInfo

General
Complete name : O:\Downloads\Monsters vs Aliens 3D.1080p.anmf.mkv
Format : Matroska
File size : 5.39 GiB
Duration : 1h 34mn
Overall bit rate : 8 161 Kbps
Encoded date : UTC 2010-12-14 08:41:33
Writing application : mkvmerge v4.0.0 ('The Stars were mine') сборка от Jun 11 2010 23:24:27
Writing library : libebml v1.0.0 + libmatroska v1.0.0
Video
ID : 1
Format : AVC
Format/Info : Advanced Video Codec
Format profile : High@L4.0
Format settings, CABAC : Yes
Format settings, ReFrames : 4 frames
Codec ID : V_MPEG4/ISO/AVC
Duration : 1h 34mn
Bit rate : 6 900 Kbps
Width : 1 920 pixels
Height : 1 080 pixels
Display aspect ratio : 16:9
Frame rate : 23.976 fps
Color space : YUV
Chroma subsampling : 4:2:0
Bit depth : 8 bits
Scan type : Progressive
Bits/(Pixel*Frame) : 0.139
Stream size : 4.44 GiB (82%)
Writing library : x264 core 98 r1649 c54c47d
Encoding settings : cabac=1 / ref=3 / deblock=1:0:0 / analyse=0x3:0x113 / me=hex / subme=7 / psy=1 / psy_rd=1.00:0.00 / mixed_ref=1 / me_range=16 / chroma_me=1 / trellis=1 / 8x8dct=1 / cqm=0 / deadzone=21,11 / fast_pskip=1 / chroma_qp_offset=-2 / threads=3 / sliced_threads=0 / nr=0 / decimate=1 / interlaced=0 / constrained_intra=0 / bframes=3 / b_pyramid=2 / b_adapt=1 / b_bias=0 / direct=1 / weightb=1 / weightp=2 / keyint=250 / keyint_min=25 / scenecut=40 / intra_refresh=0 / rc_lookahead=40 / rc=2pass / mbtree=1 / bitrate=6900 / ratetol=1.0 / qcomp=0.60 / qpmin=10 / qpmax=51 / qpstep=4 / cplxblur=20.0 / qblur=0.5 / ip_ratio=1.40 / aq=1:1.00
Language : English
Audio #1
ID : 2
Format : AC-3
Format/Info : Audio Coding 3
Mode extension : CM (complete main)
Codec ID : A_AC3
Duration : 1h 34mn
Bit rate mode : Constant
Bit rate : 640 Kbps
Channel(s) : 6 channels
Channel positions : Front: L C R, Side: L R, LFE
Sampling rate : 48.0 KHz
Bit depth : 16 bits
Stream size : 433 MiB (8%)
Language : Russian
Audio #2
ID : 3
Format : AC-3
Format/Info : Audio Coding 3
Mode extension : CM (complete main)
Codec ID : A_AC3
Duration : 1h 34mn
Bit rate mode : Constant
Bit rate : 640 Kbps
Channel(s) : 6 channels
Channel positions : Front: L C R, Side: L R, LFE
Sampling rate : 48.0 KHz
Bit depth : 16 bits
Stream size : 433 MiB (8%)
Language : English
Text #1
ID : 4
Format : UTF-8
Codec ID : S_TEXT/UTF8
Codec ID/Info : UTF-8 Plain Text
Language : Russian
Text #2
ID : 5
Format : UTF-8
Codec ID : S_TEXT/UTF8
Codec ID/Info : UTF-8 Plain Text
Language : English

Скриншоты (превью с кликом)



Остальные раздачи этого фильма (7)
Благодарности релизеру (9)

Торрент:

Статус:

Размер:

Зарегистрирован   [ 2011-09-08 13:06 ]

проверено

5.39 GB

 
 Мнение о фильме (9)





Мульт так себе , для детишек . Но 3Д очень прикольное ... Смотрел правда BD3D на LG LM55660S. Вылезания и вылеты из экрана очень эффектные..
 

3д очень прикольное.
 
Виталий Цыганов Профиль 16-Апр-2013 20:54

Мульт классный, юмор не тупой, очень смешно. Правда в конце немного скушновато. Но почти весь мульт - интересно и смешно!
 

В сюжет не вникал,дети смотрели,но эффекты и звук просто супер!Смотрел на Philips 37PFL6007k. Спасибо!
 

дети довольны смотрели на lg47lm640t
 

хороший мультик, 3d тоже на высоте
 

Отличный мультфильм с оригинальным юмором и переводом 3D эффекты на высоте.
 

Мультик хороший. Но для "семейного просмотра" я бы посоветовал какой-нибудь другой мультфильм... А для детей - отлично.
 

классный фильм. спасибо за раздачу.