Торренты   
 
 

 

IMAX. Дикий океан / Wild Ocean [2008, BDrip, half1080p, Anamorph SideBySide]

Рейтинг 3D:
6 голосов
8.5
Рейтинг фильма:
6 голосов
8.3
 
Вы должны быть авторизированы,
чтобы ставить оценки


Дикий океанWild Ocean
Год выпуска: 2008
Страна: США (Giant Screen Films, Yes/No Productions)
Жанр: Документальный
Продолжительность: 00:42:14
Перевод: Одноголосый закадровый (А.Дасевич)
Режиссер: Люк Крессвелл, Стив МакНиколас / Luke Cresswell, Steve McNicholas
Описание: Погрузитесь в невероятный безумный мир дельфинов, китов, акул, тюленей и тысяч разновидностей рыбы! Снятый в далекой рыбачьей деревушке у побережья Южной Африки, фильм ДИКИЙ ОКЕАН заставляет по-новому взглянуть на жизнь обитателей морских глубин и задуматься о том, насколько их будущее, да и будущее всего океана зависит от Человека и его взаимодействия с природой. У побережья ЮАР, там, где Африка встречается с океаном, надежда жива.
Доп. инфо: За русскую дорогу спасибо --Проверено на встроенном плейере ТВ Samsung UE-C7000 --Формат 3d: Anamorph SideBySide
Порядок ракурсов: Левый ракурс первый
Качество: BDRip (by eugeniy)
Формат: MKV
Видео: AVC / 1920х1080p / 23,976 fps / 19.5 Mbps
Аудио#1: Русский / AC3 / 48 KHz / 5.1 ch / 640 Kbps
Аудио#2: Английский / AC3 / 48 KHz / 5.1 ch / 640 Kbps

MediaInfo

General
UniqueID : 240582552932033332245449088480607117050 (0xB4FE83A7C8128939832E13584A829EFA)
Complete name : F:\Downloads\WildOcean(3D)2008.halfSBS.AVO-Dasevich.mkv
Format : Matroska
File size : 6.25 GiB
Duration : 42mn 14s
Overall bit rate : 21.2 Mbps
Movie name : Wild Ocean (3D) 2008
Encoded date : UTC 2012-03-07 09:46:16
Writing application : mkvmerge v3.4.0 ('Rapunzel') сборка от May 15 2010 09:38:20
Writing library : libebml v0.8.0 + libmatroska v0.9.0
Video
ID : 1
Format : AVC
Format/Info : Advanced Video Codec
Format profile : High@L4.0
Format settings, CABAC : Yes
Format settings, ReFrames : 4 frames
Codec ID : V_MPEG4/ISO/AVC
Duration : 42mn 14s
Bit rate : 19.5 Mbps
Width : 1 920 pixels
Height : 1 080 pixels
Display aspect ratio : 16:9
Frame rate : 23.976 fps
Color space : YUV
Chroma subsampling : 4:2:0
Bit depth : 8 bits
Scan type : Progressive
Bits/(Pixel*Frame) : 0.392
Stream size : 5.75 GiB (92%)
Title : by eugeniy2
Writing library : x264 core 112 r1834 a51816a
Encoding settings : cabac=1 / ref=4 / deblock=1:-2:-2 / analyse=0x3:0x113 / me=umh / subme=7 / psy=1 / psy_rd=1.00:0.15 / mixed_ref=1 / me_range=16 / chroma_me=1 / trellis=2 / 8x8dct=1 / cqm=0 / deadzone=21,11 / fast_pskip=1 / chroma_qp_offset=-3 / threads=6 / sliced_threads=0 / nr=0 / decimate=1 / interlaced=0 / constrained_intra=0 / bframes=6 / b_pyramid=0 / b_adapt=2 / b_bias=0 / direct=3 / weightb=1 / open_gop=0 / weightp=2 / keyint=250 / keyint_min=23 / scenecut=40 / intra_refresh=0 / rc_lookahead=40 / rc=crf / mbtree=1 / crf=18.0 / qcomp=0.60 / qpmin=10 / qpmax=51 / qpstep=4 / ip_ratio=1.40 / aq=1:1.00
Audio #1
ID : 2
Format : AC-3
Format/Info : Audio Coding 3
Mode extension : CM (complete main)
Codec ID : A_AC3
Duration : 42mn 14s
Bit rate mode : Constant
Bit rate : 640 Kbps
Channel(s) : 6 channels
Channel positions : Front: L C R, Side: L R, LFE
Sampling rate : 48.0 KHz
Bit depth : 16 bits
Compression mode : Lossy
Stream size : 193 MiB (3%)
Title : AVO А.Дасевич
Language : Russian
Audio #2
ID : 3
Format : AC-3
Format/Info : Audio Coding 3
Mode extension : CM (complete main)
Codec ID : A_AC3
Duration : 42mn 14s
Bit rate mode : Constant
Bit rate : 640 Kbps
Channel(s) : 6 channels
Channel positions : Front: L C R, Side: L R, LFE
Sampling rate : 48.0 KHz
Bit depth : 16 bits
Compression mode : Lossy
Stream size : 193 MiB (3%)
Language : English
Menu
00:00:00.000 : :1
00:02:14.551 : :2
00:04:43.575 : :3
00:07:31.868 : :4
00:08:45.525 : :5
00:11:15.091 : :6
00:13:02.240 : :7
00:13:49.245 : :8
00:16:34.827 : :9
00:17:42.061 : :10
00:20:05.496 : :11
00:22:30.015 : :12
00:23:45.424 : :13
00:25:19.518 : :14
00:29:26.890 : :15
00:30:32.831 : :16
00:35:13.445 : :17
00:36:51.835 : :18

Скриншоты

Господа копипастеры, пожалуйста, уважайте труд рипперов -
не "забывайте" указывать авторство (eugeniy) в своих релизах!
--7.03.2012 - Релиз обновлён. Видео заменено на рип eugeniy, английская дорога на АС3, добавлена русская дорога. Желающие, скачайте заново торрент-файл.
Благодарности релизеру (22)

Торрент:

Статус:

Размер:

Зарегистрирован   [ 2012-03-07 16:30 ]

проверено

6.25 GB