Торренты   
 
 

 

Шаг вперед 3D / Step Up 3D (Джон М. Чу) [2010 г, 1080p, Anamorph SideBySide]

Рейтинг 3D:
11 голосов
7.2
Рейтинг фильма:
11 голосов
7.5
 
Вы должны быть авторизированы,
чтобы ставить оценки


Шаг вперед 3D / Step Up 3D
Год выпуска: 2010
Страна: США
Жанр: Мелодрама, Драма, Музыка
Продолжительность: 01:47:09
Перевод: Профессиональный (полное дублирование)
Режиссер: Джон М. Чу
В ролях: Рик Маламбри, Элисон Стоунер, Шарни Винсон, Гарри Шум мл., Адам Дж. Севани, Элли Матсумура, Стивен Стэннерт, Кристофер Скотт, Луис Росадо, Шерил Алессио
Описание: Некоторые учатся танцевать, другие рождены для этого. Люк ищет танцоров для своей команды «Пираты». В конце концов, ему встречаются Лось, поступивший в Нью-Йоркский университет, и Натали, загадочная танцовщица, которая никогда не проигрывает. Смогут ли они превзойти лучших мировых танцоров?
Качество: BDRip
Формат: MKV
Видео: AVC / 1920x1080 / 23.976fps / 10 000 Kbps
Аудио: AC3 / 6ch / 384 Kbps / 48 KHz
Оригинальной дорожки нет!
Формат 3d: Anamorph SideBySide
Порядок ракурсов: Параллельная пара

MediaInfo

General
Complete name : O:\Downloads\Step Up 3D.1080p.anmf.mkv
Format : Matroska
File size : 7.67 GiB
Duration : 1h 47mn
Overall bit rate : 10.3 Mbps
Encoded date : UTC 2010-12-15 08:59:39
Writing application : mkvmerge v3.4.0 ('Rapunzel') сборка от May 22 2010 21:59:32
Writing library : libebml v0.8.1 + libmatroska v0.9.0
Video
ID : 1
Format : AVC
Format/Info : Advanced Video Codec
Format profile : High@L4.0
Format settings, CABAC : Yes
Format settings, ReFrames : 4 frames
Codec ID : V_MPEG4/ISO/AVC
Duration : 1h 47mn
Bit rate : 10 000 Kbps
Width : 1 920 pixels
Height : 1 080 pixels
Display aspect ratio : 16:9
Frame rate mode : Variable
Frame rate : 23.976 fps
Color space : YUV
Chroma subsampling : 4:2:0
Bit depth : 8 bits
Scan type : Progressive
Bits/(Pixel*Frame) : 0.201
Stream size : 7.23 GiB (94%)
Writing library : x264 core 107 r1745 4785e8e
Encoding settings : cabac=1 / ref=3 / deblock=1:0:0 / analyse=0x3:0x113 / me=hex / subme=7 / psy=1 / psy_rd=1.00:0.00 / mixed_ref=1 / me_range=16 / chroma_me=1 / trellis=1 / 8x8dct=1 / cqm=0 / deadzone=21,11 / fast_pskip=1 / chroma_qp_offset=-2 / threads=4 / sliced_threads=0 / nr=0 / decimate=1 / interlaced=0 / constrained_intra=0 / bframes=3 / b_pyramid=2 / b_adapt=1 / b_bias=0 / direct=1 / weightb=1 / open_gop=0 / weightp=2 / keyint=250 / keyint_min=25 / scenecut=40 / intra_refresh=0 / rc_lookahead=40 / rc=abr / mbtree=1 / bitrate=10000 / ratetol=1.0 / qcomp=0.60 / qpmin=10 / qpmax=51 / qpstep=4 / ip_ratio=1.41 / aq=1:1.00
Audio
ID : 2
Format : AC-3
Format/Info : Audio Coding 3
Mode extension : CM (complete main)
Codec ID : A_AC3
Duration : 1h 47mn
Bit rate mode : Constant
Bit rate : 384 Kbps
Channel(s) : 6 channels
Channel positions : Front: L C R, Side: L R, LFE
Sampling rate : 48.0 KHz
Bit depth : 16 bits
Video delay : 850ms
Stream size : 294 MiB (4%)
Language : Russian

Скриншоты (превью с кликом)

Благодарности релизеру (12)

Торрент:

Статус:

Размер:

Зарегистрирован   [ 2010-12-16 04:53 ]

проверено

7.67 GB