Торренты   
 
 

 

Уличные танцы 3D / Street Dance 3D (Макс Джива, Дания Пасквини) [2010 г, 1080p, Anamorph SideBySide]

Рейтинг 3D:
13 голосов
8.4
Рейтинг фильма:
13 голосов
8.6
 
Вы должны быть авторизированы,
чтобы ставить оценки


Уличные танцы 3D / Street Dance 3D
Год выпуска: 2010
Страна: Великобритания
Жанр: Мелодрама, Музыка
Продолжительность: 01:38:40
Перевод: Профессиональный (полное дублирование)
Режиссер: Макс Джива, Дания Пасквини
В ролях: Шарлотта Рэмплинг, Рэйчел МакДауэлл, Никола Берли, Ричард Уинзор, Элинор Брон, Джордж Сэмпсон, Джереми Шеффилд, Кристофер Уилсон, Патрик Балади, Фрэнк Харпер
Описание: Для победы на ежегодном Street Dance-чемпионате группа молодых танцоров начинает репетировать вместе с танцорами из Королевской Школы Балета. На стыке рок-н-ролла, уличных танцев и классики рождается умопомрачительный микс танцевальных стилей, страстей и эмоций.
Формат 3d: Anamorph SideBySide
Порядок ракурсов: Параллельная пара
Качество: BDRip (не мой)
Формат: MKV
Видео: AVC / 1920x1080 / 23.976fps / 11,1 Mbps
Аудио [rus]: AC3 / 6ch / 384 Kbps / 48 KHz
Аудио [eng]: DTS / 6ch / 755 Kbps / 48 KHz

MediaInfo

General
Complete name : O:\Downloads\Street Dance.3d.1080p.hsbs.mkv
Format : Matroska
File size : 8.60 GiB
Duration : 1h 38mn
Overall bit rate : 12.5 Mbps
Encoded date : UTC 2010-10-24 00:34:35
Writing application : mkvmerge v2.9.7 ('Tenderness') built on Jul 1 2009 18:43:35
Writing library : libebml v0.7.7 + libmatroska v0.8.1
Video
ID : 1
Format : AVC
Format/Info : Advanced Video Codec
Format profile : High@L4.1
Format settings, CABAC : Yes
Format settings, ReFrames : 4 frames
Codec ID : V_MPEG4/ISO/AVC
Duration : 1h 38mn
Bit rate : 11.1 Mbps
Width : 1 920 pixels
Height : 1 080 pixels
Display aspect ratio : 16:9
Frame rate : 23.976 fps
Color space : YUV
Chroma subsampling : 4:2:0
Bit depth : 8 bits
Scan type : Progressive
Bits/(Pixel*Frame) : 0.223
Stream size : 7.65 GiB (89%)
Writing library : x264 core 107 r1745 4785e8e
Encoding settings : cabac=1 / ref=4 / deblock=1:-1:-1 / analyse=0x3:0x113 / me=umh / subme=7 / psy=1 / psy_rd=1.00:0.15 / mixed_ref=1 / me_range=16 / chroma_me=1 / trellis=1 / 8x8dct=1 / cqm=0 / deadzone=21,11 / fast_pskip=0 / chroma_qp_offset=-3 / threads=12 / sliced_threads=0 / nr=0 / decimate=1 / interlaced=0 / constrained_intra=0 / bframes=3 / b_pyramid=2 / b_adapt=1 / b_bias=0 / direct=3 / weightb=1 / open_gop=0 / weightp=2 / keyint=250 / keyint_min=23 / scenecut=40 / intra_refresh=0 / rc_lookahead=40 / rc=crf / mbtree=1 / crf=18.0 / qcomp=0.60 / qpmin=10 / qpmax=51 / qpstep=4 / ip_ratio=1.40 / aq=1:1.00
Language : English
Audio #1
ID : 2
Format : AC-3
Format/Info : Audio Coding 3
Mode extension : CM (complete main)
Codec ID : A_AC3
Duration : 1h 38mn
Bit rate mode : Constant
Bit rate : 384 Kbps
Channel(s) : 6 channels
Channel positions : Front: L C R, Side: L R, LFE
Sampling rate : 48.0 KHz
Bit depth : 16 bits
Stream size : 271 MiB (3%)
Language : Russian
Audio #2
ID : 3
Format : DTS
Format/Info : Digital Theater Systems
Codec ID : A_DTS
Duration : 1h 38mn
Bit rate mode : Constant
Bit rate : 755 Kbps
Channel(s) : 6 channels
Channel positions : Front: L C R, Side: L R, LFE
Sampling rate : 48.0 KHz
Bit depth : 24 bits
Stream size : 533 MiB (6%)
Language : English

Скриншоты (превью с кликом)

Остальные раздачи этого фильма (4)
Благодарности релизеру (6)

Торрент:

Статус:

Размер:

Зарегистрирован   [ 2010-12-16 16:57 ]

проверено

8.6 GB

 
 Мнение о фильме (14)





Отличное кино! Эффекты просто потрясные!!! Я такое видел только в Вольте! Автору Респект!
 

А что? Вполне себе фильм. Есть на других трекерах версии, которые весят 40гб. Специально скачаю, что бы сравнить какчество! Отпишусь.
 

Фильм так себе
Тупо сделали по фильму шаг вперёд 1-2 и спёрли идею с 3D у фильма Шаг Вперёд 3D
 

Скачал фильм, решил запустить на пару минут проверить, как он смотрится... да так и досмотрел до конца.
И как бы ни хаяли качество, идею и отсутствие постобработки, мне, неискушённому зрителю, картинка очень понравилась! (NVIDIA 3D Vision)
 

Скачан 512 раз! А где сиды? Ау!
 

Уважаемый dimsa! Я понял почему Ваш файл не скачивается зарегестрированными участниками нашего сайта! Всё дело в том, что ваш файл уходит на сторону и вы им фактически не руководите.
Как же это происходит? А вот как. Совсем недавно в сети появилась новая прога для скачивания файлов из сети - "ZONA. Торрент-клиент с функцией просмотра фильмов и сериалов онлайн. Версия 1.0.1.6". которая находится вот здесь - http://www.torrentino.com/ Она установлена на моём компьютере и я ей пользовался некоторое время, пока мой вирусник не заблокировал один из элементов этой проги. Думаю, что эта прога очень опасна не только для всех треккеров, но и для пользователей тоже! Завтра я поподробней расскажу вам об этом, а пока займитесь вот чем, если у вас где-то в торрентах прячутся файлы в квадратике буква - Z (кажись зелёного цвета, точно не помню), удалите их немедленно! Это пусковые файлы ЗОНЫ с расширением (ехе).
 

"Полного источника не было: Никогда"
Ага, одна из моих догадок подтвердилась - файл скачивается со сторонних ресурсов!
Но хотя бы файл, должен храниться у вас на диске, или это необязательно? О ЗОНЕ перетру на более подходящем сайте, когда напишу статью.
 

Dimsat1, отдайте пожалуйста остатки! 35 процентов осталось докачать, нельзя же такую клёвую раздачу без сида оставлять...
 

Хороший фильм
 

на тв идет нет
 

Спасибо. Глянем
 

Очень давно хотел посмотреть в 3Д.но к сожалению звук идет а картинка не открылась,даже не знаю в чем причина((((
 

ash61, на русской DD звуковые каналы перепутаны (левый фронт с правой задней), английская в DTS всё нормально. в файле где 8.6 гига. остальные не смотрел. Проверил на 2 устройствах телек и Блюрей Самсунги
 

Скачать не могу,дайте скорости пожалуйста)))